<?xml version="1.0" standalone="no"?>
<!DOCTYPE svg PUBLIC "-//W3C//DTD SVG 1.1//EN" "http://www.w3.org/Graphics/SVG/1.1/DTD/svg11.dtd" >
<svg xmlns="http://www.w3.org/2000/svg">
<defs>
  <font id="dapth" horiz-adv-x="864">
    <font-face font-family="dapth"
      units-per-em="256" ascent="256"
      descent="0" />
    <missing-glyph horiz-adv-x="0" />
    <glyph glyph-name="Add-Circle"
      unicode="&#xEA01;"
      horiz-adv-x="256" d="M128 0C198.69184 0 256 57.30816 256 128C256 198.69248 198.69184 256 128 256C57.30752 256 0 198.69248 0 128C0 57.30816 57.30752 0 128 0zM137.6 166.4C137.6 171.701888 133.30176 176 128 176C122.698112 176 118.4 171.701888 118.4 166.4L118.4 137.599744H89.6C84.298112 137.599744 80 133.301632 80 128C80 122.69824 84.298112 118.4 89.6 118.4H118.4V89.6C118.4 84.29824 122.697984 80 128 80C133.30176 80 137.6 84.29824 137.6 89.6L137.6 118.4H166.4C171.70176 118.4 176 122.69824 176 128C176 133.301632 171.70176 137.599744 166.4 137.599744H137.6V166.4z" />
    <glyph glyph-name="Align-Horizonta-Spacing"
      unicode="&#xEA02;"
      horiz-adv-x="232" d="M8.72 256A8.72 8.72 0 0 0 17.36 247.28V15.28A8.72 8.72 0 0 0 0 15.28V247.28A8.72 8.72 0 0 0 8.72 256zM217.52 256A8.72 8.72 0 0 0 226.1600000000001 247.28V15.28A8.72 8.72 0 0 0 208.8 15.28V247.28A8.72 8.72 0 0 0 217.52 256zM113.12 224.08C134.96 224.08 145.92 224.08 152.72 217.28C159.52 210.48 159.52 199.52 159.52 177.68V84.88C159.52 63.04 159.52 52.08 152.72 45.28C145.92 38.48 134.96 38.48 113.12 38.48C91.28 38.48 80.32 38.48 73.52 45.28C66.72 52.08 66.72 63.04 66.72 84.88V177.68C66.72 199.52 66.72 210.48 73.52 217.28C80.32 224.08 91.28 224.08 113.12 224.08z" />
    <glyph glyph-name="Align-Horizontal-Spacing"
      unicode="&#xEA03;"
      horiz-adv-x="256" d="M20.8 256C25.76 256 29.76 252 29.76 247.04V8.96A8.96 8.96 0 0 0 11.92 8.96V247.04C11.92 252 15.92 256 20.8 256zM235.2 256C240.1600000000001 256 244.1600000000001 252 244.08 247.04V8.96A8.96 8.96 0 0 0 226.24 8.96V247.04C226.24 252 230.24 256 235.2 256zM128 223.28C150.48 223.28 161.68 223.28 168.64 216.32S175.6 198.08 175.6 175.6V80.4C175.6 57.92 175.6 46.72 168.64 39.68C161.68 32.72 150.4 32.72 128 32.72S94.32 32.72 87.36 39.68S80.4 57.92 80.4 80.4V175.6C80.4 198.08 80.4 209.28 87.36 216.32C94.32 223.28 105.6 223.28 128 223.28z" />
    <glyph glyph-name="Align-Vertical-Spacing"
      unicode="&#xEA04;"
      horiz-adv-x="256" d="M0 21.6C0 26.48 4 30.48 8.88 30.48H246.32A8.88 8.88 0 0 0 246.32 12.64H8.88A8.88 8.88 0 0 0 0 21.6zM0 235.2C0 240.08 4 244.08 8.88 244.16H246.32A8.88 8.88 0 0 0 246.32 226.32H8.88A8.88 8.88 0 0 0 0 235.2zM32.64 128.4C32.64 150.8 32.64 162 39.6 168.88C46.56 175.84 57.76 175.84 80.16 175.84H175.04C197.44 175.84 208.64 175.84 215.6 168.88C222.56 161.92 222.56 150.72 222.56 128.4S222.56 94.8 215.6 87.92C208.64 80.96 197.44 80.96 175.04 80.96H80.16C57.76 80.96 46.56 80.96 39.6 87.92C32.64 94.88 32.64 106.08 32.64 128.4z" />
    <glyph glyph-name="Arrow-Down"
      unicode="&#xEA05;"
      horiz-adv-x="256" d="M138.88 241.76A10.64 10.64 0 0 1 117.52 241.76V110.08H42.72A10.64 10.64 0 0 1 35.2 91.84L120.64 6.4A10.64 10.64 0 0 1 135.68 6.4L221.12 91.84A10.64 10.64 0 0 1 213.6 110.08H138.88V241.76z" />
    <glyph glyph-name="Arrow-Right-Up"
      unicode="&#xEA06;"
      horiz-adv-x="256" d="M4.16 23.7866666666667A14.1866666666667 14.1866666666667 0 1 1 24.32 3.6266666666667L156.6933333333333 136.1066666666667L232.2133333333333 60.6933333333334A14.1866666666667 14.1866666666667 0 0 1 256.5333333333333 70.8266666666667V241.7066666666667A14.1866666666667 14.1866666666667 0 0 1 242.24 256H71.2533333333333A14.1866666666667 14.1866666666667 0 0 1 61.2266666666666 231.68L136.5333333333333 156.2666666666667L4.16 23.7866666666667z" />
    <glyph glyph-name="Banknote"
      unicode="&#xEA07;"
      horiz-adv-x="256" d="M22.72 47.04A51.2 51.2 0 0 0 8.64 61.12C0 74 0 92 0 128C0 163.92 0 181.92 8.64 194.88A51.2 51.2 0 0 0 22.72 208.96C35.6 217.6 53.6 217.6 89.6 217.6H166.4C202.32 217.6 220.32 217.6 233.28 208.96A51.2 51.2 0 0 0 247.36 194.88C256 182 256 164 256 128C256 92.08 256 74.08 247.36 61.12A51.2 51.2 0 0 0 233.28 47.04C220.4 38.4 202.4 38.4 166.4 38.4H89.6C53.68 38.4 35.68 38.4 22.72 47.04zM44.8 80A9.6 9.6 0 0 1 54.4 89.6V166.4A9.6 9.6 0 0 1 35.2 166.4V89.6C35.2 84.32 39.52 80 44.8 80zM201.6 89.6A9.6 9.6 0 0 1 220.8 89.6V166.4A9.6 9.6 0 0 1 201.6 166.4V89.6zM128 80A48 48 0 1 1 128 176A48 48 0 0 1 128 80zM99.2 128A28.8 28.8 0 1 0 156.8000000000001 128A28.8 28.8 0 0 0 99.2000000000001 128z" />
    <glyph glyph-name="Battery-Charge"
      unicode="&#xEA08;"
      horiz-adv-x="256" d="M0 128C0 176.24 0 200.4 15.04 215.36C30 230.4 54.16 230.4 102.4 230.4H121.6C169.84 230.4 194 230.4 208.96 215.36C221.04 203.28 223.36 185.28 223.92 153.6H230.4C242.48 153.6 248.48 153.6 252.24 149.84C256 146.08 256 140.08 256 128C256 115.92 256 109.92 252.24 106.16C248.48 102.4 242.48 102.4 230.4 102.4H223.92C223.44 70.64 221.12 52.64 208.96 40.64C194 25.6 169.84 25.6 121.6 25.6H102.4C54.16 25.6 30 25.6 15.04 40.64C0 55.6 0 79.76 0 128zM127.76 173.76A9.6 9.6 0 0 0 128.96 160.24L110.08 137.6H134.4A9.6 9.6 0 0 0 141.76 121.84L109.76 83.44A9.6 9.6 0 0 0 95.04 95.76L113.92 118.4H89.6A9.6 9.6 0 0 0 82.24 134.16L114.24 172.56A9.6 9.6 0 0 0 127.76 173.76z" />
    <glyph glyph-name="Battery-Half"
      unicode="&#xEA09;"
      horiz-adv-x="256" d="M15.04 215.36C0 200.4 0 176.24 0 128C0 79.76 0 55.6 15.04 40.64C30 25.6 54.16 25.6 102.4 25.6H121.6C169.84 25.6 194 25.6 208.96 40.64C221.04 52.72 223.36 70.72 223.92 102.4H230.4C242.48 102.4 248.48 102.4 252.24 106.16C256 109.92 256 115.92 256 128C256 140.08 256 146.08 252.24 149.84C248.48 153.6 242.48 153.6 230.4 153.6H223.92C223.44 185.36 221.12 203.36 208.96 215.36C194 230.4 169.84 230.4 121.6 230.4H102.4C54.16 230.4 30 230.4 15.04 215.36zM72.4 171.04A9.6 9.6 0 0 1 55.52 161.84L55.6 161.76C55.68 161.6 55.84 161.2 56.08 160.64C56.56 159.52 57.2 157.6 57.92 154.88C59.28 149.44 60.8 140.64 60.8 128S59.28 106.56 57.92 101.12A47.2 47.2 0 0 0 56.08 95.36A23.68 23.68 0 0 0 55.6 94.24L55.52 94.16A9.6 9.6 0 0 1 72.4 84.96L64 89.6L72.4 84.96L72.48 85.12L72.64 85.36L72.96 86C73.2 86.56 73.52 87.28 73.92 88.24C74.64 90.16 75.6 92.8 76.48 96.32C78.32 103.36 80 113.76 80 128S78.32 152.64 76.48 159.68A68.96 68.96 0 0 1 73.92 167.76A48.08 48.08 0 0 1 72.96 170L72.64 170.64L72.4 170.96L72.4 171.04zM64 166.4L72.4 171.04L64 166.4zM104.16 174.8A9.6 9.6 0 0 0 117.2 171.04L108.8 166.4L117.2 171.04L117.28 170.88L117.44 170.64L117.76 170C118 169.44 118.32 168.72 118.72 167.76C119.44 165.84 120.4 163.2 121.28 159.68C123.12 152.64 124.8 142.24 124.8 128S123.12 103.36 121.28 96.32A68.96 68.96 0 0 0 118.72 88.24C118.32 87.28 118 86.56 117.76 86L117.44 85.36L117.2 85.04L117.2 84.96L108.8 89.6C117.12 84.96 117.12 84.96 117.2 84.96A9.6 9.6 0 0 0 100.32 94.16L100.4 94.24A23.68 23.68 0 0 1 100.88 95.36C101.36 96.48 102 98.32 102.72 101.12C104.08 106.56 105.6 115.36 105.6 128S104.08 149.44 102.72 154.88A46.24 46.24 0 0 1 100.88 160.64A23.68 23.68 0 0 1 100.4 161.76L100.32 161.84A9.6 9.6 0 0 0 104.16 174.8z" />
    <glyph glyph-name="Bell"
      unicode="&#xEA0A;"
      horiz-adv-x="256" d="M81.28 22.48C112.32 18.32 143.68 18.32 174.72 22.48C163.92 8.8 147.04 0 128 0S92.08 8.8 81.28 22.48zM214.4 166.4V157.36C214.4 146.56 217.44 136 223.28 127.04L237.44 104.96C250.4 84.8 240.48 57.44 218 51.04A330.4 330.4 0 0 0 38 51.04C15.44 57.44 5.6 84.8 18.56 104.96L32.72 127.04A56.24 56.24 0 0 1 41.6 157.36V166.4C41.6 215.92 80.32 256 128 256S214.4 215.92 214.4 166.4z" />
    <glyph glyph-name="Bell-Off"
      unicode="&#xEA0B;"
      horiz-adv-x="256" d="M81.28 22.48C112.32 18.32 143.68 18.32 174.72 22.48C163.92 8.8 147.04 0 128 0S92.08 8.8 81.28 22.48zM214.4 166.4V157.36C214.4 146.56 217.52 136 223.28 127.04L237.44 104.96C250.4 84.8 240.48 57.44 218 51.04A330.4 330.4 0 0 0 38 51.04C15.52 57.44 5.6 84.8 18.56 104.96L32.72 127.04A56.24 56.24 0 0 1 41.6 157.36V166.4C41.6 215.92 80.32 256 128 256S214.4 215.92 214.4 166.4zM103.36 156.8H130.32L96.8 122A9.84 9.84 0 0 1 94.8 111.52C96.24 107.92 99.6 105.6 103.36 105.6H152.64C157.76 105.6 161.92 109.92 161.92 115.2S157.76 124.8 152.64 124.8H125.68L159.2 159.6A9.84 9.84 0 0 1 161.2 170.08A9.28 9.28 0 0 1 152.64 176H103.36C98.24 176 94.08 171.68 94.08 166.4S98.24 156.8 103.36 156.8z" />
    <glyph glyph-name="Bluetooth"
      unicode="&#xEA0C;"
      horiz-adv-x="256" d="M182.64 91.76L131.12 128.32L131.2 128.4L131.12 128.48L182.64 165.04C188.88 169.52 194.4 173.36 198.16 177.04C202.24 180.96 205.92 185.92 205.92 192.72C205.92 199.52 202.24 204.48 198.16 208.32C194.32 212 188.88 215.84 182.64 220.32L161.36 235.44C152.88 241.44 145.76 246.56 139.84 249.52C133.76 252.64 126.4 254.88 119.04 251.12C111.68 247.36 109.28 240 108.24 233.36C107.28 226.8 107.28 218.08 107.28 207.68V145.12L62.96 176.16A8.72 8.72 0 1 1 53.04 161.84L100.8 128.4L53.04 94.96A8.72 8.72 0 1 1 62.96 80.64L107.28 111.68V49.12C107.28 38.8 107.28 30.08 108.24 23.44C109.2 16.72 111.6 9.44 119.04 5.68C126.4 1.92 133.76 4.24 139.84 7.28C145.76 10.32 152.88 15.36 161.36 21.36L182.64 36.48C188.88 40.96 194.4 44.8 198.16 48.48C202.24 52.4 205.92 57.36 205.92 64.16S202.24 75.92 198.16 79.76C194.32 83.44 188.88 87.28 182.64 91.76z" />
    <glyph glyph-name="Bolt"
      unicode="&#xEA0D;"
      horiz-adv-x="256" d="M50.72 153.68L87.92 204.08C112 236.64 124 252.96 135.28 249.44C146.48 246 146.48 226 146.48 186.08V182.32C146.48 167.92 146.48 160.72 151.12 156.24L151.36 156C156.08 151.6 163.52 151.6 178.56 151.6C205.52 151.6 219.04 151.6 223.6 143.36L223.76 142.96C228.08 134.64 220.24 124.08 204.64 102.96L167.44 52.56C143.36 20 131.36 3.68 120.08 7.2C108.8799999999999 10.64 108.8799999999999 30.64 108.8799999999999 70.56V74.32C108.8799999999999 88.72 108.8799999999999 95.92 104.2399999999999 100.4L103.9999999999999 100.64C99.28 105.04 91.84 105.04 76.7999999999999 105.04C49.8399999999999 105.04 36.3199999999999 105.04 31.7599999999999 113.28L31.5999999999999 113.68C27.2799999999999 122 35.1199999999999 132.56 50.7199999999999 153.68z" />
    <glyph glyph-name="Bookmark"
      unicode="&#xEA0E;"
      horiz-adv-x="256" d="M163.2 204.8H181.76C186.56 204.8 191.04 204.8 195.2 204.8V142.48L186.16 147.52L186.08 147.6C185.68 147.84 184.8 148.32 184 148.64C182.96 149.12 181.28 149.68 179.2 149.68S175.44 149.12 174.4 148.64C173.5999999999999 148.32 172.8 147.84 172.3199999999999 147.6L172.2399999999999 147.52L163.1999999999999 142.48V204.8zM256 130.56V102.4C256 54.16 256 30 240.96 15.04C226 0 201.84 0 153.6 0H102.4C54.16 0 30 0 15.04 15.04C0 30 0 54.16 0 102.4V192.6400000000001C0 203.92 0 209.6 0.88 214.32A51.2 51.2 0 0 0 41.68 255.1200000000001C46.4 256 52 256 63.36 256C68.32 256 70.8 256 73.2 255.76C83.44 254.8000000000001 93.2 250.8 101.04 244.2400000000001C102.88 242.7200000000001 104.64 240.9600000000001 108.16 237.4400000000001L115.2 230.4000000000001C125.68 219.92 130.88 214.72 137.12 211.28C139.3600000000001 210 141.6 208.96 144 208.0800000000001V135.04C144 133.28 144 131.2 144.2400000000001 129.36C144.4800000000001 127.52 145.28 123.28 149.3600000000001 120.4C153.84 117.36 158.3200000000001 118.48 160.4 119.28C162.16 119.92 164 120.96 165.3600000000001 121.68L165.68 121.92L179.2000000000001 129.44L192.7200000000001 121.92L193.0400000000001 121.68C194.4000000000001 120.96 196.2400000000001 119.84 198.0000000000001 119.28C200.0800000000001 118.56 204.6400000000001 117.36 209.0400000000001 120.4C213.1200000000001 123.2 213.9200000000001 127.44 214.1600000000001 129.36C214.4000000000001 131.2 214.4000000000001 133.28 214.4000000000001 135.04V204.16C227.8400000000001 203.2 236.6400000000001 200.88 243.2800000000001 194.96C244.3200000000001 194.08 245.2800000000001 193.12 246.1600000000001 192.08C256.0000000000001 181.12 256.0000000000001 164.24 256.0000000000001 130.56z" />
    <glyph glyph-name="Box-Minimalistic"
      unicode="&#xEA0F;"
      horiz-adv-x="256" d="M199.36 224.24C222.08 212.32 235.44 205.36 243.68 196L128 138.08L12.32 196C20.56 205.36 33.92 212.4 56.64 224.24L82.24 237.68C104.72 249.44 115.92 255.36 128 255.36S151.36 249.44 173.76 237.68L199.36 224.24zM252.8 179.04C256 167.52 256 152.32 256 128.16V126.64C256 94.32 256 78.16 248.32 65.2C240.64 52.24 226.88 44.96 199.36 30.48L173.76 17.04C157.2 8.32 146.72 2.88 137.6 0.64V121.44L252.8 179.04zM118.4 0.64C109.2 2.96 98.72 8.4 82.24 17.04L56.64 30.48C29.12 44.96 15.36 52.16 7.68 65.2C0 78.16 0 94.32 0 126.64V128.16C0 152.4 0 167.52 3.2 179.04L118.4 121.44V0.64z" />
    <glyph glyph-name="CPU"
      unicode="&#xEA10;"
      horiz-adv-x="256" d="M128 256C132.96 256 136.96 252 136.96 247.04V211.36C143.52 211.36 149.44 211.28 154.8 211.12V247.04A8.96 8.96 0 1 0 172.64 247.04V211.36A8.16 8.16 0 0 0 172.56 210C184.56 208.56 192.88 205.52 199.12 199.12C205.44 192.8 208.48 184.48 210 172.56A8.16 8.16 0 0 0 211.36 172.64H247.04A8.96 8.96 0 1 0 247.04 154.8H211.12C211.28 149.44 211.36 143.44 211.36 136.96H247.04A8.96 8.96 0 1 0 247.04 119.04H211.36C211.36 112.48 211.28 106.56 211.12 101.2H247.04A8.96 8.96 0 1 0 247.04 83.36H211.36A8.16 8.16 0 0 0 210 83.44C208.56 71.44 205.52 63.12 199.12 56.88C192.8 50.56 184.48 47.52 172.56 46A8.16 8.16 0 0 0 172.64 44.64V8.96A8.96 8.96 0 1 0 154.8 8.96V44.88A685.68 685.68 0 0 0 136.96 44.64V8.96A8.96 8.96 0 1 0 119.04 8.96V44.64C112.48 44.64 106.56 44.72 101.2 44.88V8.96A8.96 8.96 0 1 0 83.36 8.96V44.64C83.36 45.12 83.36 45.6 83.44 46C71.44 47.44 63.12 50.48 56.88 56.88C50.56 63.2 47.52 71.52 46 83.44A8.16 8.16 0 0 0 44.64 83.36H8.96A8.96 8.96 0 1 0 8.96 101.2H44.88A685.68 685.68 0 0 0 44.64 119.04H8.96A8.96 8.96 0 1 0 8.96 136.96H44.64C44.64 143.52 44.72 149.44 44.88 154.8H8.96A8.96 8.96 0 1 0 8.96 172.64H44.64C45.12 172.64 45.6 172.64 46 172.56C47.44 184.56 50.48 192.88 56.88 199.12C63.2 205.44 71.52 208.48 83.44 210A8.16 8.16 0 0 0 83.36 211.36V247.04A8.96 8.96 0 1 0 101.2 247.04V211.12A685.68 685.68 0 0 0 119.04 211.36V247.04C119.04 252 123.04 256 128 256zM115.52 184.56C107.6 184.56 100.8 184.56 95.28 183.84C89.44 183.04 83.84 181.28 79.28 176.72C74.72 172.16 72.96 166.56 72.16 160.72C71.44 155.28 71.44 148.48 71.44 140.48V115.52C71.44 107.6 71.44 100.8 72.16 95.28C72.96 89.44 74.72 83.84 79.28 79.28C83.84 74.72 89.44 72.96 95.28 72.16C100.72 71.44 107.52 71.44 115.52 71.44H140.48C148.4 71.44 155.2 71.44 160.72 72.16C166.56 72.96 172.16 74.72 176.72 79.28C181.28 83.84 183.04 89.44 183.84 95.28C184.56 100.72 184.56 107.52 184.56 115.52V140.48C184.56 148.4 184.56 155.2 183.84 160.72C183.04 166.56 181.28 172.16 176.72 176.72C172.16 181.28 166.56 183.04 160.72 183.84C155.28 184.56 148.48 184.56 140.48 184.56H115.52zM91.92 164.08C92.56 164.72 93.84 165.6 97.68 166.08C101.84 166.64 107.44 166.64 116.08 166.72H139.92C148.56 166.72 154.24 166.72 158.32 166.08C162.16 165.6 163.44 164.72 164.08 164.08C164.72 163.44 165.6 162.16 166.08 158.32C166.64 154.16 166.64 148.56 166.72 139.92V116.08C166.72 107.44 166.72 101.76 166.08 97.68C165.6 93.84 164.72 92.56 164.08 91.92C163.44 91.28 162.16 90.4 158.32 89.92C154.16 89.36 148.56 89.36 139.92 89.28H116.08C107.44 89.28 101.76 89.28 97.68 89.92C93.84 90.4 92.56 91.28 91.92 91.92C91.28 92.56 90.4 93.84 89.92 97.68C89.36 101.84 89.36 107.44 89.28 116.08V139.92C89.28 148.56 89.28 154.24 89.92 158.32C90.4 162.16 91.28 163.44 91.92 164.08z" />
    <glyph glyph-name="Card"
      unicode="&#xEA11;"
      horiz-adv-x="256" d="M102.4 230.4H153.6C201.84 230.4 226.0000000000001 230.4 240.9600000000001 215.36C251.7600000000001 204.56 254.8000000000001 189.04 255.6800000000001 163.2H0.32C1.2 189.04 4.16 204.64 15.04 215.36C30 230.4 54.16 230.4 102.4 230.4zM153.6 25.6H102.4C54.16 25.6 30 25.6 15.04 40.64C0 55.6 0 79.76 0 128C0 133.68 0 138.96 0 144H256C256 138.96 256 133.68 256 128C256 79.76 256 55.6 240.96 40.64C226 25.6 201.84 25.6 153.6 25.6zM51.2 86.4A9.6 9.6 0 0 1 51.2 67.2H102.4A9.6 9.6 0 0 1 102.4 86.4H51.2zM134.4 86.4A9.6 9.6 0 0 1 134.4 67.2H153.6A9.6 9.6 0 0 1 153.6 86.4H134.4z" />
    <glyph glyph-name="Chart"
      unicode="&#xEA12;"
      horiz-adv-x="256" d="M223.28 108.08A8.72 8.72 0 0 1 214.56 116.8H179.76A8.72 8.72 0 0 1 171.12 108.08V29.76H153.68V218.32C153.68 226.8 153.68 232.24 153.12 236.24C152.64 240.0000000000001 151.76 241.2 151.12 241.8400000000001C150.48 242.48 149.28 243.36 145.52 243.8400000000001C141.52 244.4000000000001 136 244.4000000000001 127.6 244.4000000000001C119.12 244.4000000000001 113.68 244.4000000000001 109.68 243.8400000000001C105.92 243.36 104.72 242.48 104.08 241.8400000000001C103.44 241.2 102.56 240.0000000000001 102.08 236.24C101.52 232.24 101.52 226.7200000000001 101.52 218.32V29.76H84.08V166.08A8.72 8.72 0 0 1 75.44 174.8H40.64A8.72 8.72 0 0 1 31.92 166.08V29.76H11.6A8.72 8.72 0 0 1 11.6 12.4H243.6A8.72 8.72 0 0 1 243.6 29.7600000000001H223.28V108.08z" />
    <glyph glyph-name="Chart-2"
      unicode="&#xEA13;"
      horiz-adv-x="256" d="M192.08 250.88C195.68 254.48 201.36 254.48 212.8 254.48S230 254.48 233.52 250.88C237.12 247.28 237.12 241.6 237.12 230.16V72.08C237.12 60.64 237.12 54.88 233.52 51.36C229.92 47.76 224.24 47.76 212.8 47.76S195.6 47.76 192.08 51.36C188.48 54.96 188.48 60.64 188.48 72.08V230.16C188.48 241.6 188.48 247.36 192.08 250.88zM103.36 193.68C103.36 205.12 103.36 210.88 106.96 214.4C110.56 218 116.24 218 127.68 218S144.88 218 148.4 214.4C152 210.8 152 205.12 152 193.68V72.08C152 60.64 152 54.88 148.4 51.36C144.8 47.76 139.12 47.76 127.68 47.76S110.48 47.76 106.96 51.36C103.36 54.96 103.36 60.64 103.36 72.08V193.68zM21.84 165.76C25.44 169.36 31.12 169.36 42.56 169.36S59.76 169.36 63.28 165.76C66.88 162.16 66.88 156.48 66.88 145.04V72.08C66.88 60.64 66.88 54.88 63.28 51.36C59.68 47.76 54 47.76 42.56 47.76S25.36 47.76 21.84 51.36C18.24 54.96 18.24 60.64 18.24 72.08V145.04C18.24 156.48 18.24 162.24 21.84 165.76zM18.24 20.4H237.12A9.12 9.12 0 0 0 237.12 2.16H18.24A9.12 9.12 0 0 0 18.24 20.4z" />
    <glyph glyph-name="Chat-Dots"
      unicode="&#xEA14;"
      horiz-adv-x="256" d="M141.9104 11.0368L148.848 19.5608C154.2296 28.6536 156.9216 33.2008 161.2432 35.7152C165.5648 38.2296 171.0088 38.3216 181.8936 38.5096C197.9624 38.7864 208.0392 39.7704 216.4912 43.2712C232.1736 49.7672 244.6328 62.2264 251.1288 77.9088C256 89.6688 256 101.3808 256 134.4V147.2C256 189.09984 256 210.04992 246.5688 225.43984C241.2912 234.05152 234.052 241.29064 225.44 246.5684C210.0496 256 189.1 256 147.2 256H108.8C66.90016 256 45.95008 256 30.56016 246.5684C21.94848 241.29064 14.70936 234.05152 9.4316 225.43984C0 210.04992 0 189.09984 0 147.2V134.4C0 101.3808 0 89.6688 4.871248 77.9088C11.3676 62.2264 23.82632 49.7672 39.50848 43.2712C47.96048 39.7704 58.03728 38.7864 74.10672 38.5096C84.9912 38.3216 90.4352 38.2296 94.7568 35.7152C99.0784 33.2008 101.7704 28.6536 107.152 19.5608L114.0896 11.0368C120.2744 2.124 135.7256 2.124 141.9104 11.0368zM179.2 128C185.6512 128 190.4 132.7488 190.4 139.2C190.4 145.6512 185.6512 150.4 179.2 150.4C172.7488 150.4 168 145.6512 168 139.2C168 132.7488 172.7488 128 179.2 128zM140.8 139.2C140.8 132.7488 136.0512 128 129.6 128C123.1488 128 118.4 132.7488 118.4 139.2C118.4 145.6512 123.1488 150.4 129.6 150.4C136.0512 150.4 140.8 145.6512 140.8 139.2zM76.8 128C83.2512 128 88 132.7488 88 139.2C88 145.6512 83.2512 150.4 76.8 150.4C70.34848 150.4 65.6 145.6512 65.6 139.2C65.6 132.7488 70.34848 128 76.8 128z" />
    <glyph glyph-name="Check-Circle"
      unicode="&#xEA15;"
      horiz-adv-x="256" d="M256 128C256 57.28 198.72 0 128 0S0 57.28 0 128S57.28 256 128 256S256 198.72 256 128zM179.6 166.8A9.6 9.6 0 0 0 179.6 153.2L115.6 89.2A9.6 9.6 0 0 0 102 89.2L76.4 114.8A9.6 9.6 0 1 0 90 128.4L108.8 109.6L137.44 138.16L166 166.8A9.6 9.6 0 0 0 179.6 166.8z" />
    <glyph glyph-name="Circle-Bottom-Down"
      unicode="&#xEA16;"
      horiz-adv-x="256" d="M92.72 11.28A9.12 9.12 0 0 0 83.6 2.16H10.64A9.12 9.12 0 0 0 1.52 11.28V84.24A9.12 9.12 0 0 0 19.76 84.24V33.28L101.44 115.04A9.12 9.12 0 1 0 114.4 102.08L32.64 20.4H83.6A9.12 9.12 0 0 0 92.72 11.28zM132.24 11.28C124.96 11.28 117.84 11.92 110.88 13.12A27.36 27.36 0 0 1 83.6 38.64H76.72L127.28 89.2A27.36 27.36 0 1 1 88.56 127.92L38 77.36V84.24A27.36 27.36 0 0 1 12.48 111.52A122.16 122.16 0 0 0 10.64 132.88C10.64 200 65.12 254.48 132.24 254.48S253.84 200 253.84 132.88S199.36 11.28 132.24 11.28z" />
    <glyph glyph-name="Close-Circle"
      unicode="&#xEA17;"
      horiz-adv-x="256" d="M256 128C256 57.28 198.72 0 128 0S0 57.28 0 128S57.28 256 128 256S256 198.72 256 128zM89.2 166.8A9.6 9.6 0 0 0 102.8 166.8L128 141.6L153.2 166.8A9.6 9.6 0 1 0 166.8 153.2L141.6 128L166.8 102.8A9.6 9.6 0 1 0 153.2 89.2L128 114.4L102.8 89.2A9.6 9.6 0 1 0 89.2 102.8L114.4 128L89.2 153.2A9.6 9.6 0 0 0 89.2 166.8z" />
    <glyph glyph-name="Cloud-File"
      unicode="&#xEA18;"
      horiz-adv-x="256" d="M222.08 184.08C237.68 170.08 246 162.56 250.64 153.6H204.8C174.64 153.6 159.52 153.6 150.16 162.96C140.8 172.32 140.8 187.44 140.8 217.6L140.88 252.56C149.76 249.2 156.96 242.64 171.44 229.68L222.0800000000001 184.08zM102.4 0C54.16 0 30 0 15.04 15.04C0 30 0 54.16 0 102.4V153.6C0 201.84 0 226 15.04 240.96C30 256 54.32 256 102.8 256C110.56 256 116.8 256 122 255.76A20.96 20.96 0 0 1 121.68 252.64L121.6 216.4C121.6 202.32 121.6 189.92 122.96 179.92C124.4 169.04 127.76 158.24 136.64 149.44C145.52 140.56 156.32 137.28 167.12 135.76C177.12 134.4 189.52 134.4 203.6 134.4H255.44C256 127.6 256 119.2 256 108V102.4C256 54.16 256 30 240.96 15.04C226 0 201.84 0 153.6 0H102.4zM115.2 51.2C129.36 51.2 140.8 61.28 140.8 73.76C140.8 83.68 133.6 92.08 123.6 95.12C122.16 106.4 111.36 115.2 98.16 115.2C84 115.2 72.56 105.12 72.56 92.64C72.56 89.92 73.12 87.2 74.16 84.8A22.24 22.24 0 0 1 70.4 85.12C59.84 85.12 51.2 77.52 51.2 68.16C51.2 58.8 59.84 51.2 70.4 51.2H115.2z" />
    <glyph glyph-name="Cloud-Storage"
      unicode="&#xEA19;"
      horiz-adv-x="256" d="M88.8 96.8C94.4 102.4 103.52 102.4 121.6 102.4H134.4C152.48 102.4 161.52 102.4 167.2 96.8C172.8 91.2 172.8 82.08 172.8 64V38.4C172.8 20.32 172.8 11.28 167.2 5.6C161.6 0 152.48 0 134.4 0H121.6C103.52 0 94.48 0 88.8 5.6C83.2 11.2 83.2 20.32 83.2 38.4V64C83.2 82.08 83.2 91.12 88.8 96.8zM105.6 51.2C105.6 45.92 109.92 41.6 115.2 41.6H140.8A9.6 9.6 0 0 1 140.8 60.8H115.2A9.6 9.6 0 0 1 105.6 51.2zM64 51.2H54.88C24.56 51.2 0 75.44 0 105.44C0 135.36 24.56 159.68 54.88 159.6C58.48 159.6 62.08 159.28 65.52 158.6400000000001A71.36 71.36 0 0 0 60.96 183.68C60.96 223.6 93.68 256 134.08 256C171.68 256 202.72 227.92 206.8 191.84C235.44 182.0800000000001 256 155.12 256 123.5200000000001C256 86.64 228.08 56.24 192 51.7600000000001V65.0400000000001C192 73.2000000000001 192 81.1200000000001 191.12 87.6000000000001C190.16 94.9600000000001 187.68 103.36 180.72 110.3200000000001C173.76 117.2800000000001 165.36 119.6800000000001 158 120.7200000000001C151.44 121.6000000000001 143.6 121.6000000000001 135.44 121.6000000000001H120.56C112.4 121.6000000000001 104.48 121.6000000000001 98 120.7200000000001C90.64 119.7600000000001 82.24 117.2800000000001 75.28 110.3200000000001C68.32 103.36 65.92 94.96 64.88 87.6000000000001C64 81.0400000000001 64 73.2000000000001 64 65.0400000000001V51.2z" />
    <glyph glyph-name="Colour-Tuneing"
      unicode="&#xEA1A;"
      horiz-adv-x="256" d="M15.04 240.96C0 226 0 201.84 0 153.6V102.4C0 54.16 0 30 15.04 15.04C30 -1e-13 54.16 -1e-13 102.4 -1e-13H153.6C201.84 -1e-13 226.0000000000001 -1e-13 240.9600000000001 15.0399999999999C256.0000000000001 29.9999999999999 256.0000000000001 54.1599999999999 256.0000000000001 102.3999999999999V153.5999999999999C256.0000000000001 201.8399999999999 256.0000000000001 226 240.9600000000001 240.9599999999999C226.0000000000001 255.9999999999999 201.8400000000001 255.9999999999999 153.6000000000001 255.9999999999999H102.4000000000001C54.1600000000001 255.9999999999999 30.0000000000001 255.9999999999999 15.0400000000001 240.9599999999999zM75.68 170A48.72 48.72 0 0 0 86.4 189.04C91.04 193.92 94.72 195.2 96.32 195.2C100.24 195.2 105.52 192.96 110.24 182.16C115.12 171.28 118.4 153.68 118.4 128C118.4 101.12 121.76 80.4 128.24 66C134.72 51.44 145.36 41.6 159.68 41.6C168.96 41.6 177.36 47.28 183.6 53.84A68 68 0 0 1 198.72 80.4A9.6 9.6 0 1 1 180.32 86A48.72 48.72 0 0 0 169.6 66.96C164.96 62.08 161.28 60.8 159.68 60.8C155.7600000000001 60.8 150.4800000000001 63.04 145.7600000000001 73.84C140.8800000000001 84.72 137.6000000000001 102.32 137.6000000000001 128C137.6000000000001 154.88 134.2400000000001 175.6 127.7600000000001 190C121.2800000000001 204.56 110.64 214.4 96.3200000000001 214.4C87.0400000000001 214.4 78.64 208.72 72.4000000000001 202.16A68 68 0 0 1 57.2800000000001 175.6A9.6 9.6 0 0 1 75.6800000000001 170zM51.2 137.6A9.6 9.6 0 0 1 51.2 118.4H96A9.6 9.6 0 0 1 96 137.6H51.2zM160 137.6A9.6 9.6 0 0 1 160 118.4H204.8A9.6 9.6 0 0 1 204.8 137.6H160z" />
    <glyph glyph-name="Copy"
      unicode="&#xEA1B;"
      horiz-adv-x="256" d="M169.44 256C188.96 256 205.6 243.84 212.32 226.72C201.04 228.24 186.96 228.24 170.72 228.24H131.36C115.04 228.24 100.96 228.24 89.68 226.72C77.6 225.12 66 221.44 56.64 212C47.28 202.56 43.6 190.96 41.92 178.8C40.4 167.52 40.4 153.36 40.48 136.96V72.8C40.48 59.2 40.48 42.88 41.28 31.28A46.32 46.32 0 0 0 12.8 74V148.72C12.8 171.36 12.8 189.36 14.72 203.44C16.64 217.92 20.72 229.6 29.92 238.8C39.12 248 50.8 252.16 65.2 254.08C79.2 256 97.12 256 119.6 256H169.44zM58.88 135.68C58.88 170.56 58.88 188 69.68 198.88C80.48 209.76 97.84 209.76 132.64 209.76H169.44C204.16 209.76 221.6 209.76 232.4 198.88C243.2 188 243.2 170.56 243.2 135.68V74C243.2 39.12 243.2 21.68 232.4 10.88C221.6 0 204.24 0 169.44 0H132.64C97.84 0 80.48 0 69.68 10.88C58.88 21.76 58.88 39.2 58.88 74V135.68z" />
    <glyph glyph-name="Crop"
      unicode="&#xEA1C;"
      horiz-adv-x="256" d="M46.4 253.12A8.72 8.72 0 0 0 55.12 244.4V140C55.12 117.84 55.12 102.16 56.72 90.24C58.32 78.56 61.2 71.84 66.16 66.96C71.04 62.08 77.76 59.12 89.44 57.52C101.36 55.92 117.04 55.92 139.2 55.92H243.6A8.72 8.72 0 0 0 243.6 38.48H217.52V12.4A8.72 8.72 0 0 0 200.08 12.4V38.48H138.56C117.2 38.48 100.32 38.48 87.12 40.24C73.52 42.08 62.48 45.92 53.84 54.64C45.2 63.36 41.28 74.32 39.44 87.92C37.68 101.12 37.68 118 37.68 139.36V200.88H11.6A8.72 8.72 0 0 0 11.6 218.32H37.68V244.4000000000001A8.72 8.72 0 0 0 46.4 253.1200000000001zM165.76 199.28C153.84 200.88 138.16 200.88 116 200.88H81.2A8.72 8.72 0 0 0 81.2 218.32H116.64C138 218.32 154.88 218.32 168.08 216.56C181.68 214.72 192.72 210.88 201.36 202.16C210 193.44 213.92 182.48 215.76 168.88C217.52 155.68 217.52 138.8 217.52 117.44V82A8.72 8.72 0 0 0 200.08 82V116.8C200.08 138.96 200.08 154.64 198.48 166.56C196.88 178.24 194 184.96 189.04 189.84C184.16 194.72 177.44 197.68 165.76 199.28zM86.96 134.16C86.96 150.56 86.96 158.8 92.08 163.92C97.2 169.04 105.36 169.04 121.76 168.96H133.36C149.76 168.96 158 168.96 163.12 163.92C168.24 158.8 168.24 150.64 168.16 134.16V122.56C168.16 106.16 168.16 97.92 163.12 92.88C158 87.76 149.84 87.76 133.36 87.76H121.76C105.36 87.76 97.12 87.76 92.08 92.88C86.96 98 86.96 106.16 86.96 122.56V134.16z" />
    <glyph glyph-name="Crown-Line"
      unicode="&#xEA1D;"
      horiz-adv-x="256" d="M253.92 139.2L250.96 108C246.16 56.64 243.68 30.96 228.64 15.52C213.52 0 190.8 0 145.44 0H110.56C65.2 0 42.48 0 27.36 15.52C12.24 30.96 9.84 56.72 5.04 108L2.08 139.2C-0.24 163.68 -1.36 175.92 2.8 180.96A12.64 12.64 0 0 0 11.44 185.68C17.52 186.24 25.2 177.52 40.48 160.08C48.4 151.04 52.32 146.56 56.72 145.92A11.84 11.84 0 0 1 63.92 147.04C68 149.12 70.72 154.64 76.16 165.76L104.8 224.48C115.04 245.52 120.16 256 128 256C135.84 256 140.96 245.4400000000001 151.2 224.48L179.84 165.76C185.28 154.64 188 149.04 192.08 147.04C194.32 145.92 196.8 145.5200000000001 199.28 145.92C203.68 146.64 207.6 151.12 215.52 160.08C230.8 177.52 238.48 186.16 244.56 185.68A12.64 12.64 0 0 0 253.2 180.96C257.36 175.92 256.24 163.68 253.92 139.2zM80 51.2A9.6 9.6 0 0 0 89.6 60.8H166.4A9.6 9.6 0 0 0 166.4 41.6H89.6A9.6 9.6 0 0 0 80 51.2z" />
    <glyph glyph-name="Cup"
      unicode="&#xEA1E;"
      horiz-adv-x="256" d="M249.28 179.52V178.64C249.28 168.16 249.28 162.96 246.8 158.72C244.32 154.4 239.68 151.92 230.48 146.8L220.88 141.44C227.52 163.92 229.76 188.08 230.5600000000001 208.72L230.6400000000001 211.36L230.7200000000001 212C238.6400000000001 209.28 243.1200000000001 207.2 245.8400000000001 203.36C249.2800000000001 198.56 249.2800000000001 192.24 249.2800000000001 179.52zM6.08 179.52C6.08 192.24 6.08 198.56 9.52 203.36C12.32 207.2 16.72 209.28 24.64 212L24.72 211.36L24.8 208.72C25.6 188.08 27.84 163.92 34.48 141.44L24.88 146.8C15.76 151.92 11.12 154.4 8.56 158.72S6.08 168.24 6.08 178.64V179.52zM180.88 250.24C194.72 247.92 201.68 246.72 207.44 239.6C213.2 232.48 212.96 224.8 212.32 209.44C210.24 156.56 198.8 90.56 136.8 84.64V41.68H154.16C160 41.68 164.96 37.6 166.08 31.92L168.4 20.4H200.64A9.12 9.12 0 0 0 200.64 2.16H54.72A9.12 9.12 0 0 0 54.72 20.4H86.96L89.28 31.92C90.4 37.6 95.44 41.68 101.2 41.68H118.56V84.64C56.56 90.48 45.12 156.56 43.04 209.44C42.4 224.88 42.16 232.56 47.92 239.6C53.68 246.72 60.64 247.92 74.48 250.24A320.24 320.24 0 0 0 127.68 254.48C149.3600000000001 254.48 167.2000000000001 252.56 180.8800000000001 250.24z" />
    <glyph glyph-name="Cursor"
      unicode="&#xEA1F;"
      horiz-adv-x="256" d="M201.2 12.8L138.16 75.84L118.96 56.56C99.28 36.88 89.44 27.04 78.8 29.36C68.24 31.68 63.36 44.8 53.76 70.88L21.68 158.0800000000001C2.48 210.24 -7.12 236.32 6.24 249.7600000000001C19.68 263.2000000000001 45.76 253.6 97.92 234.3200000000001L185.12 202.2400000000001C211.28 192.6400000000001 224.32 187.7600000000001 226.64 177.2000000000001C228.96 166.6400000000001 219.12 156.8000000000001 199.44 137.0400000000001L180.16 117.8400000000001L243.2 54.8000000000001C249.76 48.2400000000001 252.96 45.0400000000001 254.48 41.3600000000001C256.48 36.4800000000001 256.48 31.0400000000001 254.48 26.2400000000001C252.96 22.6400000000001 249.68 19.3600000000001 243.2 12.8000000000001S233.4400000000001 3.0400000000001 229.76 1.5200000000001A19.92 19.92 0 0 0 214.64 1.5200000000001C210.96 3.0400000000001 207.76 6.3200000000001 201.2 12.8000000000001z" />
    <glyph glyph-name="Danger-Triangle"
      unicode="&#xEA20;"
      horiz-adv-x="256" d="M42.4 143.84C79.76 210.08 98.4 243.2 128 243.2S176.24 210.08 213.6 143.84L218.24 135.6C249.28 80.56 264.8 53.04 250.8 32.96S202.08 12.8 132.64 12.8H123.36C53.92 12.8 19.28 12.8 5.2 32.96S6.72 80.64 37.76 135.6L42.4 143.84zM128 188.8A9.6 9.6 0 0 0 137.6 179.2V115.2A9.6 9.6 0 0 0 118.4 115.2V179.2A9.6 9.6 0 0 0 128 188.8zM128 64A12.8 12.8 0 1 1 128 89.6A12.8 12.8 0 0 1 128 64z" />
    <glyph glyph-name="Database"
      unicode="&#xEA21;"
      horiz-adv-x="256" d="M230.4 51.2C230.4 22.96 184.56 0 128 0S25.6 22.96 25.6 51.2V102.72C32 94.8 41.12 88.24 51.28 83.2C71.44 73.12 98.56 67.2 128 67.2S184.56 73.12 204.72 83.2C214.88 88.24 224 94.8 230.4 102.72V51.2zM128 144C157.44 144 184.56 149.92 204.72 160C214.88 165.04 224 171.6 230.4 179.52V128C230.4 121.6 207.52 107.6 196.08 100.4C179.12 91.92 155.12 86.4 128 86.4S76.8 91.92 59.92 100.4C44.8 107.92 25.6 121.6 25.6 128V179.52C32 171.6 41.12 165.04 51.28 160C71.44 149.92 98.56 144 128 144zM196.08 177.2C179.12 168.72 155.12 163.2 128 163.2S76.8 168.72 59.92 177.2C53.36 179.76 38.48 188 28.16 201.2A10.4 10.4 0 0 0 26.08 209.2C26.4 211.12 26.8 213.04 27.36 214.24C36.24 238 77.92 256 128 256C178.08 256 219.84 238 228.64 214.24C229.2 213.04 229.6 211.04 229.92 209.2A10.32 10.32 0 0 0 227.84 201.2C217.52 187.92 202.72 179.76 196.08 177.2z" />
    <glyph glyph-name="Delivery"
      unicode="&#xEA22;"
      horiz-adv-x="256" d="M101.68 172.24C95.2 195.84 91.92 207.68 97.44 216.96C102.96 226.24 115.12 229.44 139.44 235.68L165.28 242.4C189.6 248.72 201.76 251.84 211.28 246.56C220.88 241.2 224.16 229.36 230.72 205.76L237.6 180.8C244.08 157.2 247.36 145.44 241.84 136.08C236.32 126.8 224.16 123.6 199.84 117.28L174 110.56C149.68 104.24 137.52 101.12 127.92 106.48C118.32 111.84 115.12 123.68 108.56 147.2L101.68 172.24zM3.76 219.12A10.08 10.08 0 0 0 16.16 226.08L39.04 219.76A36.4 36.4 0 0 0 64.48 194.48L93.44 89.84L95.52 82.48A39.76 39.76 0 0 0 116 65.52L120.16 66.8L239.36 97.76A10.08 10.08 0 1 0 244.48 78.24L125.68 47.36L121.28 46C121.2 28.88 109.36 13.36 91.52 8.72C70.16 3.12 48.16 15.44 42.48 36.16C36.72 56.88 49.44 78.24 70.8 83.76A45.04 45.04 0 0 0 74 84.48L45.04 189.12A16.24 16.24 0 0 1 33.68 200.32L10.72 206.64A10.08 10.08 0 0 0 3.76 219.12z" />
    <glyph glyph-name="Devices"
      unicode="&#xEA23;"
      horiz-adv-x="256" d="M0 96C0 114 0 122.96 4.32 129.44C6.16 132.24 8.56 134.64 11.36 136.48C17.84 140.8 26.8 140.8 44.8 140.8C62.8 140.8 71.76 140.8 78.24 136.48A25.6 25.6 0 0 0 85.28 129.44C89.6 122.96 89.6 114 89.6 96V44.8C89.6 26.8 89.6 17.84 85.28 11.36A25.44 25.44 0 0 0 78.24 4.32C71.76 0 62.8 0 44.8 0C26.8 0 17.84 0 11.36 4.32A25.6 25.6 0 0 0 4.32 11.36C0 17.84 0 26.8 0 44.8V96zM256 153.6V102.4C256 54.16 256 30 240.96 15.04C226 -1e-13 201.84 -1e-13 153.6 -1e-13C131.84 -1e-13 115.04 -1e-13 101.68 1.36C106 8.08 107.52 15.2 108.16 21.8399999999999C108.8 28.1599999999999 108.8 35.68 108.8 43.92V96.88C108.8 105.12 108.8 112.72 108.16 118.96C107.44 125.76 105.84 133.2 101.28 140.08A44.64 44.64 0 0 1 88.88 152.48C82 157.12 74.56 158.72 67.76 159.36A175.68 175.68 0 0 1 51.2 160C51.2 204.08 51.84 226.72 66.24 240.96C81.2 256 105.36 256 153.6 256C201.84 256 226.0000000000001 256 240.9600000000001 240.96C256.0000000000001 226 256.0000000000001 201.84 256.0000000000001 153.6zM118.4 38.4C118.4 33.12 122.72 28.8 128 28.8H192A9.6 9.6 0 0 1 192 48H128A9.6 9.6 0 0 1 118.4 38.4z" />
    <glyph glyph-name="Display"
      unicode="&#xEA24;"
      horiz-adv-x="256" d="M0 169.44C0 204.16 0 221.6 11.28 232.4C22.48 243.2 40.64 243.2 76.8 243.2H179.2C215.36 243.2 233.52 243.2 244.72 232.4C256 221.6 256 204.24 256 169.44V157.2C256 122.48 256 105.04 244.72 94.24C233.52 83.44 215.36 83.44 179.2 83.44H137.6V53.28L207.84 30.72A9.12 9.12 0 0 0 213.92 19.12A9.68 9.68 0 0 0 201.76 13.28L128 36.88L54.24 13.28C49.2 11.68 43.76 14.24 42.08 19.12A9.12 9.12 0 0 0 48.16 30.72L118.4 53.28V83.44H76.8C40.64 83.44 22.48 83.44 11.28 94.24C0 105.04 0 122.4 0 157.2V169.44z" />
    <glyph glyph-name="Download"
      unicode="&#xEA25;"
      horiz-adv-x="256" d="M127.68 254.48A9.12 9.12 0 0 0 136.8 245.36V111.92L157.28 135.76A9.12 9.12 0 1 0 171.04 123.92L134.56 81.36A9.12 9.12 0 0 0 120.8 81.36L84.32 123.92A9.12 9.12 0 1 0 98.08 135.76L118.56 111.92V245.36A9.12 9.12 0 0 0 127.68 254.48zM155.04 160.24H176.32C210.72 160.24 227.92 160.24 238.5600000000001 149.52C249.2800000000001 138.88 249.2800000000001 121.6 249.2800000000001 87.28V75.12C249.2800000000001 40.72 249.2800000000001 23.52 238.5600000000001 12.88C227.92 2.16 210.6400000000001 2.16 176.32 2.16H79.04C44.64 2.16 27.44 2.16 16.8 12.88C6.08 23.52 6.08 40.8 6.08 75.12V87.28C6.08 121.68 6.08 138.88 16.8 149.52C27.44 160.24 44.72 160.24 79.04 160.24H100.32V155.68A27.36 27.36 0 0 1 73.36 150.64A27.36 27.36 0 0 1 70.4 112L106.88 69.44A27.36 27.36 0 0 1 148.48 69.44L184.96 112C194.8 123.44 193.44 140.72 182 150.64A27.36 27.36 0 0 1 155.04 155.68V160.24z" />
    <glyph glyph-name="Exit"
      unicode="&#xEA26;"
      horiz-adv-x="256" d="M98.64 250.8C107.68 258.8 121.52 256.4 149.2 251.52L179.04 246.32C209.68 240.96 225.04 238.32 234.08 227.12C243.2 215.84 243.2 199.6 243.2 167.04V88.96C243.2 56.48 243.2 40.16 234.08 28.88C224.96 17.68 209.68 14.96 179.04 9.6L149.2 4.48C121.52 -0.32 107.68 -2.72 98.64 5.2C89.6 13.2 89.6 27.92 89.6 57.28V198.72C89.6 228.08 89.6 242.72 98.64 250.8zM128 151.44C122.72 151.44 118.4 146.96 118.4 141.44V114.56C118.4 109.04 122.72 104.56 128 104.56S137.6 109.04 137.6 114.56V141.44C137.6 146.96 133.28 151.44 128 151.44zM71.04 224C70.4 216 70.4 206.8 70.4 196.8V59.2C70.4 49.2 70.4 40 71.04 32C44.72 32 30.96 32.64 22.16 41.36C12.8 50.72 12.8 65.84 12.8 96V160C12.8 190.16 12.8 205.28 22.16 214.64C30.88 223.36 44.64 224 71.04 224z" />
    <glyph glyph-name="Export"
      unicode="&#xEA27;"
      horiz-adv-x="256" d="M74.72 189.76A11.28 11.28 0 0 0 74.72 205.68L119.84 250.8A11.28 11.28 0 0 0 135.84 250.8L180.96 205.68A11.28 11.28 0 1 0 164.96 189.76L139.12 215.6V92.4A11.28 11.28 0 0 0 116.56 92.4V215.6L90.72 189.76A11.28 11.28 0 0 0 74.72 189.76zM127.84 2.16A120.32 120.32 0 0 0 7.52 122.48H63.92C78.08 122.48 85.2 122.48 89.6 118.08C94 113.68 94 106.56 94 92.4A33.84 33.84 0 1 1 161.68 92.4C161.68 106.56 161.68 113.68 166.08 118.08C170.48 122.48 177.6 122.48 191.76 122.48H248.1600000000001A120.32 120.32 0 0 0 127.84 2.16z" />
    <glyph glyph-name="File"
      unicode="&#xEA28;"
      horiz-adv-x="256" d="M153.6 0H102.4C54.16 0 30 0 15.04 15.04C0 30 0 54.16 0 102.4V153.6C0 201.84 0 226 15.04 240.96C30 256 54.32 256 102.8 256C110.56 256 116.8 256 122 255.76A20.96 20.96 0 0 1 121.68 252.64L121.6 216.4C121.6 202.32 121.6 189.92 122.96 179.92C124.4 169.04 127.76 158.24 136.64 149.44C145.52 140.56 156.32 137.28 167.12 135.76C177.12 134.4 189.52 134.4 203.6 134.4H255.44C256 127.6 256 119.2 256 108V102.4C256 54.16 256 30 240.96 15.04C226 0 201.84 0 153.6 0zM222.08 184.08C237.68 170.08 246 162.56 250.64 153.6H204.8C174.64 153.6 159.52 153.6 150.16 162.96C140.8 172.32 140.8 187.44 140.8 217.6L140.88 252.56C149.76 249.2 156.96 242.64 171.44 229.68L222.08 184.08z" />
    <glyph glyph-name="File-Smile"
      unicode="&#xEA29;"
      horiz-adv-x="256" d="M222.08 184.08C237.68 170.08 246 162.56 250.64 153.6H204.8C174.64 153.6 159.52 153.6 150.16 162.96C140.8 172.32 140.8 187.44 140.8 217.6L140.88 252.56C149.76 249.2 156.96 242.64 171.44 229.68L222.0800000000001 184.08zM153.6 0H102.4C54.16 0 30 0 15.04 15.04C0 30 0 54.16 0 102.4V153.6C0 201.84 0 226 15.04 240.96C30 256 54.32 256 102.8 256C110.56 256 116.8 256 122 255.76A20.96 20.96 0 0 1 121.68 252.64L121.6 216.4C121.6 202.32 121.6 189.92 122.96 179.92C124.4 169.04 127.76 158.24 136.6400000000001 149.44C145.5200000000001 140.56 156.3200000000001 137.28 167.12 135.76C177.12 134.4 189.5200000000001 134.4 203.6 134.4H255.4400000000001C256 127.6 256 119.2 256 108V102.4C256 54.16 256 30 240.96 15.04C226 0 201.84 0 153.6 0zM64 76.8C71.04 76.8 76.8 85.44 76.8 96S71.04 115.2 64 115.2S51.2 106.56 51.2 96S56.96 76.8 64 76.8zM192 76.8C199.04 76.8 204.8000000000001 85.44 204.8000000000001 96S199.0400000000001 115.2 192 115.2S179.2 106.56 179.2 96S184.96 76.8 192 76.8zM81.6 62.96A9.6 9.6 0 0 1 84.24 49.6A78.8 78.8 0 0 1 171.76 49.6A9.6 9.6 0 1 1 161.04 65.6A59.6 59.6 0 0 0 94.96 65.6A9.6 9.6 0 0 1 81.6 62.96z" />
    <glyph glyph-name="Filter"
      unicode="&#xEA2A;"
      horiz-adv-x="256" d="M217.6 243.2H38.4C20.32 243.2 11.28 243.2 5.6 237.92C0 232.64 0 224.16 0 207.2V198.32C0 185.04 0 178.4 3.36 172.88C6.64 167.36 12.72 163.92 24.88 157.12L62.16 136.16C70.32 131.6 74.4 129.28 77.28 126.72C83.36 121.44 87.12 115.28 88.8 107.68C89.6 104.08 89.6 99.76 89.6 91.2V57.04C89.6 45.36 89.6 39.6 92.8 35.04C96 30.48 101.76 28.24 113.2 23.76C137.28 14.4 149.28 9.68 157.84 15.04C166.4 20.4 166.4 32.64 166.4 57.04V91.2C166.4 99.76 166.4 104 167.2000000000001 107.68A34.32 34.32 0 0 0 178.7200000000001 126.72C181.6000000000001 129.28 185.7600000000001 131.52 193.8400000000001 136.16L231.1200000000001 157.12C243.2800000000001 163.92 249.3600000000001 167.36 252.6400000000001 172.88C256.0000000000001 178.4 256.0000000000001 185.04 256.0000000000001 198.32V207.2C256.0000000000001 224.16 256.0000000000001 232.64 250.4000000000001 237.92C244.8000000000001 243.2 235.6800000000001 243.2 217.6000000000001 243.2z" />
    <glyph glyph-name="Filters"
      unicode="&#xEA2B;"
      horiz-adv-x="256" d="M204.8 179.2A76.8 76.8 0 1 0 51.2 179.2A76.8 76.8 0 0 0 204.8 179.2zM38.8 143.6A96 96 0 0 1 128 83.2A96.4 96.4 0 0 1 152.96 86.48A76.8 76.8 0 1 0 38.8 143.6zM171.36 93.52A96.4 96.4 0 0 1 217.2 143.6A76.8 76.8 0 1 0 144.16 8.4A95.68 95.68 0 0 1 172.8 76.8C172.8 82.48 172.32 88.08 171.36 93.52z" />
    <glyph glyph-name="Flag"
      unicode="&#xEA2C;"
      horiz-adv-x="256" d="M50.72 253.12A8.72 8.72 0 0 0 59.44 244.4V222.96L79.44 226.96A100.64 100.64 0 0 0 136.56 221.68L138.88 220.72A92.72 92.72 0 0 1 195.84 216.88A13.92 13.92 0 0 0 213.12 203.36V117.92C213.12 110.48 208 103.92 200.8 102.08L198.32 101.52A100.72 100.72 0 0 0 136.56 105.68A100.64 100.64 0 0 1 79.44 110.96L59.44 106.96V12.4A8.72 8.72 0 0 0 42.08 12.4V244.4A8.72 8.72 0 0 0 50.72 253.12z" />
    <glyph glyph-name="Folder"
      unicode="&#xEA2D;"
      horiz-adv-x="256" d="M0.88 214.32C0 209.6 0 204 0 192.64V102.4C0 54.16 0 30 15.04 15.04C30 0 54.16 0 102.4 0H153.6C201.84 0 226.0000000000001 0 240.9600000000001 15.04C256.0000000000001 30 256.0000000000001 54.16 256.0000000000001 102.4V130.56C256.0000000000001 164.2400000000001 256.0000000000001 181.12 246.1600000000001 192.0800000000001A35.84 35.84 0 0 1 243.2800000000001 194.96C232.3200000000001 204.8000000000001 215.4400000000001 204.8000000000001 181.7600000000001 204.8000000000001H176.96C162.2400000000001 204.8000000000001 154.8000000000001 204.8000000000001 148 206.72A50.64 50.64 0 0 0 137.12 211.28C130.88 214.72 125.68 220.0000000000001 115.2 230.4000000000001L108.16 237.4400000000001C104.64 240.9600000000001 102.88 242.7200000000001 101.04 244.2400000000001A51.12 51.12 0 0 1 73.2 255.7600000000001C70.8 256.0000000000001 68.32 256.0000000000001 63.36 256.0000000000001C52.08 256.0000000000001 46.4 256.0000000000001 41.68 255.1200000000001A51.2 51.2 0 0 1 0.88 214.3200000000001zM131.2 153.6A9.6 9.6 0 0 0 140.8 163.2H204.8A9.6 9.6 0 0 0 204.8 144H140.8A9.6 9.6 0 0 0 131.2 153.6z" />
    <glyph glyph-name="Folder-Check"
      unicode="&#xEA2E;"
      horiz-adv-x="256" d="M0.88 214.32C0 209.6 0 204 0 192.64V102.4C0 54.16 0 30 15.04 15.04C30 0 54.16 0 102.4 0H153.6C201.84 0 226.0000000000001 0 240.9600000000001 15.04C256.0000000000001 30 256.0000000000001 54.16 256.0000000000001 102.4V130.56C256.0000000000001 164.2400000000001 256.0000000000001 181.12 246.1600000000001 192.0800000000001A35.84 35.84 0 0 1 243.2800000000001 194.96C232.3200000000001 204.8000000000001 215.4400000000001 204.8000000000001 181.7600000000001 204.8000000000001H176.96C162.2400000000001 204.8000000000001 154.8000000000001 204.8000000000001 148 206.72A50.64 50.64 0 0 0 137.12 211.28C130.88 214.72 125.68 220.0000000000001 115.2 230.4000000000001L108.16 237.4400000000001C104.64 240.9600000000001 102.88 242.7200000000001 101.04 244.2400000000001A51.12 51.12 0 0 1 73.2 255.7600000000001C70.8 256.0000000000001 68.32 256.0000000000001 63.36 256.0000000000001C52.08 256.0000000000001 46.4 256.0000000000001 41.68 255.1200000000001A51.2 51.2 0 0 1 0.88 214.3200000000001zM160 135.2A9.6 9.6 0 0 0 160.8 121.6L126.64 83.2A9.6 9.6 0 0 0 112.32 83.2L95.2 102.4A9.6 9.6 0 1 0 109.6 115.2L119.44 104.08L146.4 134.4A9.6 9.6 0 0 0 160 135.2z" />
    <glyph glyph-name="Folder-Cloud"
      unicode="&#xEA2F;"
      horiz-adv-x="256" d="M0.88 214.32C0 209.6 0 204 0 192.64V102.4C0 54.16 0 30 15.04 15.04C30 0 54.16 0 102.4 0H153.6C201.84 0 226.0000000000001 0 240.9600000000001 15.04C256.0000000000001 30 256.0000000000001 54.16 256.0000000000001 102.4V130.56C256.0000000000001 164.2400000000001 256.0000000000001 181.12 246.1600000000001 192.0800000000001A35.84 35.84 0 0 1 243.2800000000001 194.96C232.3200000000001 204.8000000000001 215.4400000000001 204.8000000000001 181.7600000000001 204.8000000000001H176.96C162.2400000000001 204.8000000000001 154.8000000000001 204.8000000000001 148 206.72A50.64 50.64 0 0 0 137.12 211.28C130.88 214.72 125.68 220.0000000000001 115.2 230.4000000000001L108.16 237.4400000000001C104.64 240.9600000000001 102.88 242.7200000000001 101.04 244.2400000000001A51.12 51.12 0 0 1 73.2 255.7600000000001C70.8 256.0000000000001 68.32 256.0000000000001 63.36 256.0000000000001C52.08 256.0000000000001 46.4 256.0000000000001 41.68 255.1200000000001A51.2 51.2 0 0 1 0.88 214.3200000000001zM149.92 76.8C166.08 76.8 179.2 88.96 179.2 103.92C179.2 115.76 170.96 125.84 159.52 129.52C157.92 143.04 145.52 153.6 130.48 153.6C114.32 153.6 101.2 141.44 101.2 126.48C101.2 123.2 101.84 120 103.04 117.12A24.56 24.56 0 0 1 98.72 117.44C86.56 117.44 76.8 108.32 76.8 97.12C76.8 85.92 86.64 76.8 98.72 76.8H149.92z" />
    <glyph glyph-name="Folder-Path-Connect"
      unicode="&#xEA30;"
      horiz-adv-x="256" d="M217.6 174.48V156.16C217.6 124.8 217.6 109.12 207.12 99.36C196.64 89.6 179.76 89.6 145.92 89.6H137.6V51.2A9.12 9.12 0 0 0 137.44 49.44C143.92 46.88 149.12 41.68 151.76 35.2H246.4000000000001A9.6 9.6 0 0 0 246.4000000000001 16H151.7600000000001A25.6 25.6 0 0 0 104.24 16H9.6A9.6 9.6 0 0 0 9.6 35.2H104.24A25.68 25.68 0 0 0 118.56 49.44A10.24 10.24 0 0 0 118.4 51.2V89.6H110.08C76.3200000000001 89.6 59.36 89.6 48.88 99.36C38.4 109.12 38.4 124.8 38.4 156.16V214.8C38.4 222.16 38.4 225.84 39.04 228.88C41.76 242.32 53.12 252.88 67.6 255.44C70.88 256 74.88 256 82.72 256C86.16 256 87.9200000000001 256 89.6 255.84A37.44 37.44 0 0 0 109.12 248.32C110.4 247.36 111.6 246.16 114.08 243.92L119.04 239.36C126.32 232.56 130 229.2 134.4 226.88C136.8000000000001 225.6 139.3600000000001 224.64 142 224C146.8000000000001 222.72 152 222.72 162.32 222.72H165.68C189.28 222.72 201.04 222.72 208.72 216.32C209.44 215.76 210.0800000000001 215.12 210.72 214.48C217.6 207.36 217.6 196.4 217.6 174.48zM137.6 185.6A9.6 9.6 0 0 0 147.2 195.2H185.6A9.6 9.6 0 0 0 185.6 176H147.2A9.6 9.6 0 0 0 137.6 185.6z" />
    <glyph glyph-name="Folder-Security"
      unicode="&#xEA31;"
      horiz-adv-x="256" d="M256 130.56V102.4C256 54.16 256 30 240.96 15.04C226 0 201.84 0 153.6 0H102.4C54.16 0 30 0 15.04 15.04C0 30 0 54.16 0 102.4V192.6400000000001C0 203.92 0 209.6 0.88 214.32A51.2 51.2 0 0 0 41.68 255.1200000000001C46.4 256 52 256 63.36 256C68.32 256 70.8 256 73.2 255.76C83.44 254.8000000000001 93.2 250.8 101.04 244.2400000000001C102.88 242.7200000000001 104.64 240.9600000000001 108.16 237.4400000000001L115.2 230.4000000000001C125.68 219.92 130.88 214.72 137.12 211.28C140.56 209.36 144.16 207.84 148 206.72C154.88 204.8 162.2400000000001 204.8 176.96 204.8H181.7600000000001C215.4400000000001 204.8 232.3200000000001 204.8 243.2800000000001 194.96C244.3200000000001 194.08 245.2800000000001 193.12 246.1600000000001 192.08C256.0000000000001 181.12 256.0000000000001 164.24 256.0000000000001 130.56zM128 150.4A35.2 35.2 0 0 1 118.4 81.28V57.6A9.6 9.6 0 0 1 137.6 57.6V81.28A35.2 35.2 0 0 1 128 150.4zM128 131.2A16 16 0 1 0 128 99.2A16 16 0 0 0 128 131.2z" />
    <glyph glyph-name="Forward"
      unicode="&#xEA32;"
      horiz-adv-x="256" d="M155.04 230.72L229.92 164.16C243.92 151.76 250.88 145.52 253.52 138.08C255.76 131.68 255.76 124.64 253.52 118.24C250.96 110.88 243.92 104.64 229.92 92.16L155.04 25.68C148.64 20 145.52 17.2 142.8 17.04A7.52 7.52 0 0 0 136.72 19.84C135.04 21.92 135.04 26.16 135.04 34.64V76.64C98.56 76.64 59.92 64.8800000000001 31.76 44.08C17.12 33.28 9.76 27.84 6.96 28.0000000000001A6.8 6.8 0 0 0 1.12 31.6000000000001C-0.32 34.0000000000001 0.96 41.52 3.52 56.4800000000001C20.16 153.7600000000001 87.04 179.7600000000001 135.04 179.7600000000001V221.6800000000001C135.04 230.1600000000001 135.04 234.4000000000001 136.72 236.5600000000001A7.52 7.52 0 0 0 142.8 239.2000000000001C145.52 239.1200000000001 148.64 236.3200000000001 155.04 230.7200000000001z" />
    <glyph glyph-name="Gamepad"
      unicode="&#xEA33;"
      horiz-adv-x="256" d="M111.44 205.76L105.36 210.08A51.52 51.52 0 0 1 75.6 219.52H68.16C63.2 219.52 58.24 219.2 53.6 217.6C24.64 207.36 4.72 169.76 6.16 84.48C6.48 67.28 10.48 48.32 25.92 40.96C30.72 38.64 36.4 37.12 42.88 37.12C50.64 37.12 56.72 39.36 61.52 42.4C66.48 45.68 70.88 49.92 75.2 54.16C80.64 59.36 86 64.64 92.56 68A49.92 49.92 0 0 0 115.52 73.6H139.84C147.84 73.6 155.76 71.68 162.8 68C169.28 64.64 174.72 59.36 180.16 54.16C184.56 49.92 188.88 45.68 193.84 42.4C198.56 39.28 204.72 37.12 212.48 37.12C218.96 37.12 224.56 38.64 229.44 40.96C244.96 48.4 248.96 67.36 249.2 84.48C250.64 169.68 230.72 207.28 201.76 217.6C197.12 219.28 192.16 219.52 187.2 219.52H179.76C169.12 219.52 158.64 216.24 150 210.08L143.92 205.76A28.08 28.08 0 0 0 111.44 205.76zM185.44 170.88A9.12 9.12 0 1 0 185.44 152.64A9.12 9.12 0 0 0 185.44 170.88zM72.96 167.84A9.12 9.12 0 0 0 82.08 158.72V149.6H91.2A9.12 9.12 0 0 0 91.2 131.36H82.08V122.24A9.12 9.12 0 0 0 63.84 122.24V131.36H54.72A9.12 9.12 0 0 0 54.72 149.6H63.84V158.72A9.12 9.12 0 0 0 72.96 167.84zM212.8 143.52A9.12 9.12 0 1 0 194.56 143.52A9.12 9.12 0 0 0 212.8 143.52zM167.2 134.4A9.12 9.12 0 1 1 167.2 152.64A9.12 9.12 0 0 1 167.2 134.4zM194.56 125.28A9.12 9.12 0 1 1 176.32 125.28A9.12 9.12 0 0 1 194.56 125.28z" />
    <glyph glyph-name="Ghost"
      unicode="&#xEA34;"
      horiz-adv-x="256" d="M256 32V124.24C256 194.96 198.72 252.24 128 252.24S0 194.96 0 124.24V32A22.08 22.08 0 0 1 32 12.24A36.96 36.96 0 0 0 69.04 9.92A37.04 37.04 0 0 1 110.16 9.92L114.64 12.96A24.08 24.08 0 0 0 141.36 12.96L145.84 9.92A37.04 37.04 0 0 1 186.96 9.92A36.96 36.96 0 0 0 224 12.24A22.08 22.08 0 0 1 256 32zM179.2 143.44C179.2 132.88 173.44 124.24 166.4 124.24S153.6 132.88 153.6 143.44S159.36 162.64 166.4 162.64S179.2 154 179.2 143.44zM89.6 124.24C96.64 124.24 102.4 132.88 102.4 143.44S96.64 162.64 89.6 162.64S76.8 154 76.8 143.44S82.56 124.24 89.6 124.24z" />
    <glyph glyph-name="Global"
      unicode="&#xEA35;"
      horiz-adv-x="256" d="M128 256C195.44 256 250.72 203.84 255.68 137.6H191.84A252.8 252.8 0 0 1 187.76 175.04C184.96 190 180.8 203.76 175.52 215.52C170.24 227.2 163.68 237.12 155.92 244.24C148.08 251.36 138.64 256 128 256zM128 256C117.36 256 107.92 251.36 100.08 244.24C92.32 237.12 85.76 227.28 80.48 215.52C75.12 203.76 71.04 190 68.24 175.04A252.8 252.8 0 0 1 64.16 137.6H0.32C5.2 203.84 60.48 256 128 256zM128 0C60.56 0 5.28 52.16 0.32 118.4H64.16C64.64 105.6 66 92.96 68.24 80.96C71.04 66 75.2 52.24 80.48 40.48C85.76 28.8 92.32 18.88 100.08 11.76C107.92 4.64 117.36 0 128 0zM128 0C138.64 0 148.08 4.64 155.92 11.76C163.68 18.88 170.24 28.72 175.52 40.48C180.88 52.24 184.96 66 187.76 80.96C190 92.96 191.36 105.6 191.84 118.4H255.6800000000001C250.7200000000001 52.16 195.5200000000001 0 128 0zM128 238.16C131.52 238.16 136.08 236.64 141.36 231.84C146.64 226.96 152 219.36 156.72 208.88C161.44 198.56 165.2 186.08 167.84 172.08C169.9200000000001 161.12 171.2000000000001 149.44 171.6 137.6H84.4C84.88 149.44 86.16 161.12 88.16 172.08C90.8 186 94.56 198.48 99.28 208.88C104 219.28 109.36 226.96 114.64 231.84C119.92 236.64 124.48 238.16 128 238.16zM88.16 83.92A236.48 236.48 0 0 0 84.4 118.4H171.6A236.48 236.48 0 0 0 167.84 83.92C165.2 70 161.44 57.52 156.72 47.12C152 36.72 146.64 29.04 141.36 24.16C136.08 19.36 131.52 17.84 128 17.84S119.92 19.36 114.64 24.16C109.28 29.04 104 36.64 99.28 47.12C94.56 57.44 90.8 69.92 88.16 83.92z" />
    <glyph glyph-name="Graph"
      unicode="&#xEA36;"
      horiz-adv-x="256" d="M18.72 237.28C0 218.56 0 188.32 0 128C0 67.68 0 37.52 18.72 18.72C37.44 0 67.68 0 128 0C188.32 0 218.48 0 237.28 18.72C256 37.44 256 67.68 256 128C256 188.32 256 218.48 237.28 237.28C218.56 256 188.32 256 128 256C67.68 256 37.52 256 18.72 237.28zM199.36 147.44A9.6 9.6 0 0 1 184.64 159.76L161.6 132.16C156.88 126.48 153.92 122.96 151.6 120.8A10 10 0 0 0 149.44 119.28L149.36 119.2L149.2 119.28A10.08 10.08 0 0 0 147.12 120.8C144.72 122.96 141.76 126.4 137.04 132.16L133.28 136.64C129.12 141.68 125.28 146.24 121.76 149.44C117.92 152.96 113.04 156 106.64 156C100.24 156 95.44 152.88 91.6 149.44C88.08 146.24 84.24 141.68 80 136.64L56.64 108.56A9.6 9.6 0 0 1 71.36 96.24L94.4 123.84C99.12 129.52 102.08 132.96 104.4 135.2A10 10 0 0 0 106.56 136.72L106.64 136.8C106.64 136.8 106.72 136.8 106.8 136.72A10 10 0 0 0 108.88 135.2C111.28 133.04 114.16 129.6 118.96 123.84L122.72 119.36C126.96 114.32 130.72 109.76 134.24 106.56C138.08 103.04 142.96 100 149.36 100C155.76 100 160.56 103.12 164.4 106.56C167.92 109.76 171.76 114.32 176 119.36L199.36 147.44z" />
    <glyph glyph-name="Graph-Down"
      unicode="&#xEA37;"
      horiz-adv-x="256" d="M18.72 237.28C0 218.56 0 188.32 0 128C0 67.68 0 37.52 18.72 18.72C37.44 0 67.68 0 128 0C188.32 0 218.48 0 237.28 18.72C256 37.44 256 67.68 256 128C256 188.32 256 218.48 237.28 237.28C218.56 256 188.32 256 128 256C67.68 256 37.52 256 18.72 237.28zM70.8 160.4A9.6 9.6 0 1 1 57.2 146.8L86.56 117.44A22.4 22.4 0 0 1 118.24 117.44L138.56 137.76A3.2 3.2 0 0 0 143.04 137.76L168.8 112H160A9.6 9.6 0 0 1 160 92.8H192A9.6 9.6 0 0 1 201.6 102.4V134.4A9.6 9.6 0 0 1 182.4 134.4V125.6L156.64 151.36A22.4 22.4 0 0 1 124.96 151.36L104.64 131.04A3.2 3.2 0 0 0 100.16 131.04L70.8 160.4z" />
    <glyph glyph-name="Graph-Down-New"
      unicode="&#xEA38;"
      horiz-adv-x="256" d="M256 217.6A38.4 38.4 0 1 0 179.2 217.6A38.4 38.4 0 0 0 256 217.6zM128 256C145.92 256 161.12 256 174.24 255.52A57.6 57.6 0 0 1 255.52 174.24C256 161.12 256 145.92 256 128C256 67.68 256 37.52 237.28 18.72C218.56 0 188.32 0 128 0C67.68 0 37.52 0 18.72 18.72C0 37.44 0 67.68 0 128C0 188.32 0 218.48 18.72 237.28C37.44 256 67.68 256 128 256zM160 112A9.6 9.6 0 0 1 160 92.8H192A9.6 9.6 0 0 1 201.6 102.4V134.4A9.6 9.6 0 0 1 182.4 134.4V125.6L156.64 151.36A22.4 22.4 0 0 1 124.96 151.36L104.64 131.04A3.2 3.2 0 0 0 100.16 131.04L70.8 160.4A9.6 9.6 0 1 1 57.2 146.8L86.56 117.44A22.4 22.4 0 0 1 118.24 117.44L138.56 137.76A3.2 3.2 0 0 0 143.04 137.76L168.8 112H160z" />
    <glyph glyph-name="Graph-New"
      unicode="&#xEA39;"
      horiz-adv-x="256" d="M256 217.6A38.4 38.4 0 1 0 179.2 217.6A38.4 38.4 0 0 0 256 217.6zM174.24 255.52A57.6 57.6 0 0 1 255.52 174.24C256 161.12 256 145.92 256 128C256 67.68 256 37.52 237.28 18.72C218.56 0 188.32 0 128 0C67.68 0 37.52 0 18.72 18.72C0 37.44 0 67.68 0 128C0 188.32 0 218.48 18.72 237.28C37.44 256 67.68 256 128 256C145.92 256 161.12 256 174.24 255.52zM198.16 160.96A9.6 9.6 0 0 1 184.64 159.76L161.6 132.16C156.88 126.48 153.92 122.96 151.6 120.8A10 10 0 0 0 149.44 119.28L149.36 119.2L149.2 119.28A10.08 10.08 0 0 0 147.12 120.8C144.72 122.96 141.76 126.4 137.04 132.16L133.28 136.64C129.12 141.68 125.28 146.24 121.76 149.44C117.92 152.96 113.04 156 106.64 156C100.24 156 95.44 152.88 91.6 149.44C88.08 146.24 84.24 141.68 80 136.64L56.64 108.56A9.6 9.6 0 0 1 71.36 96.24L94.4 123.84C99.12 129.52 102.08 132.96 104.4 135.2A10 10 0 0 0 106.56 136.72L106.64 136.8C106.64 136.8 106.72 136.8 106.8 136.72A10 10 0 0 0 108.88 135.2C111.28 133.04 114.16 129.6 118.96 123.84L122.72 119.36C126.96 114.32 130.72 109.76 134.24 106.56C138.08 103.04 142.96 100 149.36 100C155.76 100 160.56 103.12 164.4 106.56C167.92 109.76 171.76 114.32 176 119.36L199.36 147.44A9.6 9.6 0 0 1 198.16 160.96z" />
    <glyph glyph-name="Hamburger-Menu"
      unicode="&#xEA3A;"
      horiz-adv-x="256" d="M18.72 18.72C37.44 0 67.68 0 128 0C188.32 0 218.48 0 237.28 18.72C256 37.44 256 67.68 256 128C256 188.32 256 218.48 237.28 237.28C218.56 256 188.32 256 128 256C67.68 256 37.52 256 18.72 237.28C0 218.56 0 188.32 0 128C0 67.68 0 37.52 18.72 18.72zM214.4 76.8A9.6 9.6 0 0 0 204.8 67.2H51.2A9.6 9.6 0 0 0 51.2 86.4H204.8A9.6 9.6 0 0 0 214.4 76.8zM204.8 118.4A9.6 9.6 0 0 1 204.8 137.6H51.2A9.6 9.6 0 0 1 51.2 118.4H204.8zM214.4 179.2A9.6 9.6 0 0 0 204.8 169.6H51.2A9.6 9.6 0 0 0 51.2 188.8H204.8A9.6 9.6 0 0 0 214.4 179.2z" />
    <glyph glyph-name="Help"
      unicode="&#xEA3B;"
      horiz-adv-x="256" d="M225.04 44.56L170.32 99.2A50.96 50.96 0 0 1 179.2 128C179.2 138.64 175.92 148.56 170.32 156.8L225.04 211.44A127.52 127.52 0 0 0 256 128C256 96.08 244.32 66.96 225.04 44.56zM211.44 30.96A127.52 127.52 0 0 0 128 0A127.52 127.52 0 0 0 44.56 30.96L99.2 85.68C107.36 80.08 117.28 76.8 128 76.8A50.96 50.96 0 0 1 156.8 85.68L211.44 30.96zM30.96 44.56A127.52 127.52 0 0 0 0 128C0 159.92 11.68 189.04 30.96 211.44L85.68 156.8A50.96 50.96 0 0 1 76.8 128C76.8 117.36 80.08 107.44 85.68 99.2L30.96 44.56zM128 179.2C117.36 179.2 107.44 175.92 99.2 170.32L44.56 225.04A127.52 127.52 0 0 0 128 256C159.92 256 189.04 244.32 211.44 225.04L156.8 170.32A50.96 50.96 0 0 1 128 179.2z" />
    <glyph glyph-name="Home"
      unicode="&#xEA3C;"
      horiz-adv-x="256" d="M6.64 181.44C0 169.28 0 154.64 0 125.36V105.92C0 56 0 31.04 15.04 15.52C30 0 54.16 0 102.4 0H153.6C201.84 0 226.0000000000001 0 240.9600000000001 15.52C256.0000000000001 31.04 256.0000000000001 56 256.0000000000001 105.92V125.36C256.0000000000001 154.64 256.0000000000001 169.28 249.3600000000001 181.44C242.7200000000001 193.6 230.5600000000001 201.12 206.3200000000001 216.24L180.7200000000001 232.08C155.0400000000001 248 142.2400000000001 256 128.0000000000001 256C113.8400000000001 256 100.9600000000001 248 75.2800000000001 232.08L49.6800000000001 216.24C25.3600000000001 201.2 13.2800000000001 193.6 6.6400000000001 181.44zM89.6 60.8A9.6 9.6 0 0 1 89.6 41.6H166.4A9.6 9.6 0 0 1 166.4 60.8H89.6z" />
    <glyph glyph-name="Home-WiFi"
      unicode="&#xEA3D;"
      horiz-adv-x="256" d="M153.6 0H102.4C54.16 0 30 0 15.04 15.52C0 31.04 0 56 0 105.92V125.36C0 154.64 0 169.28 6.64 181.44C13.28 193.6 25.44 201.12 49.68 216.24L75.28 232.08C100.96 248 113.76 256 128 256C142.16 256 155.04 248 180.72 232.08L206.32 216.24C230.64 201.2 242.72 193.6 249.36 181.44C256 169.28 256 154.64 256 125.36V105.92C256 56 256 31.04 240.96 15.52C226 0 201.84 0 153.6 0zM197.76 125.52C159.12 167.2 96.88 167.2 58.24 125.52A9.6 9.6 0 0 0 44.16 138.56C90.4 188.48 165.6 188.48 211.84 138.56A9.6 9.6 0 1 0 197.76 125.52zM172.16 97.92C147.68 124.32 108.32 124.32 83.84 97.92A9.6 9.6 0 0 0 69.76 110.96C101.84 145.6 154.16 145.6 186.24 110.96A9.6 9.6 0 1 0 172.16 97.92zM146.56 70.24C136.24 81.44 119.76 81.44 109.44 70.24A9.6 9.6 0 0 0 95.36 83.36C113.28 102.72 142.72 102.72 160.64 83.36A9.6 9.6 0 1 0 146.56 70.24z" />
    <glyph glyph-name="Info-Circle"
      unicode="&#xEA3E;"
      horiz-adv-x="256" d="M256 128C256 57.28 198.72 0 128 0S0 57.28 0 128S57.28 256 128 256S256 198.72 256 128zM128 54.4A9.6 9.6 0 0 1 137.6 64V140.8A9.6 9.6 0 0 1 118.4 140.8V64C118.4 58.72 122.72 54.4 128 54.4zM128 192A12.8 12.8 0 1 0 128 166.4A12.8 12.8 0 0 0 128 192z" />
    <glyph glyph-name="Laptop-Minimalistic"
      unicode="&#xEA3F;"
      horiz-adv-x="256" d="M89.84 217.28C85.68 220.56 81.28 224.08 76.24 224.08H25.52C18.48 224.08 12.72 218.8 12.72 212.24V90H242.56V212.24C242.56 218.8 236.88 224.08 229.84 224.08H179.12C174 224.08 169.6 220.56 165.44 217.28L163.36 215.6C160.64 213.44 157.04 212.16 153.2 212.24H102.16C98.32 212.24 94.72 213.52 92 215.6L89.84 217.28zM12.72 70.88H242.56A12.8 12.8 0 0 0 255.36 58.08V45.36A12.8 12.8 0 0 0 242.56 32.56H12.8A12.8 12.8 0 0 0 0 45.36V58.08A12.8 12.8 0 0 0 12.72 70.88z" />
    <glyph glyph-name="Layers"
      unicode="&#xEA40;"
      horiz-adv-x="256" d="M38.16 157.6C12.72 167.76 0 172.88 0 179.2C0 185.52 12.72 190.64 38.16 200.8L74.08 215.12C99.52 225.28 112.24 230.4 128 230.4S156.48 225.28 181.92 215.12L217.84 200.8C243.2800000000001 190.64 256 185.52 256 179.2C256 172.88 243.28 167.76 217.84 157.6L181.92 143.28C156.48 133.12 143.76 128 128 128S99.52 133.12 74.08 143.28L38.16 157.6zM217.84 106.4L181.92 92.08C156.48 81.92 143.76 76.8 128 76.8S99.52 81.92 74.08 92.08L38.16 106.4C12.72 116.56 0 121.68 0 128C0 133.68 10.32 138.4 30.96 146.72L71.2 130.64C94.88 121.2 109.76 115.2 128 115.2S161.12 121.12 184.8 130.64L225.04 146.72C245.68 138.4 256 133.68 256 128C256 121.68 243.28 116.56 217.84 106.4zM217.84 55.2L181.92 40.88C156.48 30.72 143.76 25.6 128 25.6S99.52 30.72 74.08 40.88L38.16 55.2C12.72 65.36 0 70.48 0 76.8C0 82.48 10.32 87.2 30.96 95.52L71.2 79.44C94.88 70 109.76 64 128 64S161.12 69.92 184.8 79.44L225.04 95.52C245.68 87.2 256 82.48 256 76.8C256 70.48 243.28 65.36 217.84 55.2z" />
    <glyph glyph-name="Login"
      unicode="&#xEA41;"
      horiz-adv-x="256" d="M110.48 181.28A11.28 11.28 0 0 0 126.4 181.28L171.52 136.16A11.28 11.28 0 0 0 171.52 120.16L126.4 75.04A11.28 11.28 0 1 0 110.48 91.04L136.32 116.88H13.2A11.28 11.28 0 0 0 13.2 139.44H136.32L110.48 165.28A11.28 11.28 0 0 0 110.48 181.28zM133.44 214.64V248.48A120.32 120.32 0 0 0 133.44 7.84V41.68C133.44 48.4 137.6 54.3200000000001 142.4 59.12L187.52 104.24A33.84 33.84 0 0 1 187.52 152.0800000000001L142.4 197.2000000000001C137.6 202 133.52 207.84 133.44 214.6400000000001z" />
    <glyph glyph-name="Logout-3"
      unicode="&#xEA42;"
      horiz-adv-x="256" d="M7.12 162.48V93.2C7.12 60.56 7.12 44.24 17.44 34.08C26.8 24.88 41.28 24 68.64 23.92C67.2 33.52 66.88 44.96 66.8 58.48A10.48 10.48 0 0 0 77.28 68.96A10.48 10.48 0 0 0 87.84 58.64C87.92 43.52 88.32 32.72 89.84 24.56C91.28 16.72 93.68 12.16 97.04 8.8C100.96 4.96 106.4 2.48 116.72 1.12C127.36 -0.32 141.36 -0.32 161.52 -0.32H175.52C195.68 -0.32 209.68 -0.32 220.32 1.12C230.64 2.48 236.08 4.96 239.92 8.8C243.76 12.64 246.32 18 247.76 28.24C249.2 38.72 249.2 52.56 249.2 72.4V183.28C249.2 203.2 249.2 217.04 247.76 227.44C246.4 237.6 243.84 242.96 239.92 246.88C236 250.72 230.56 253.2 220.32 254.56C209.76 255.92 195.68 256 175.52 256H161.52C141.36 256 127.36 256 116.72 254.56C106.4 253.2 100.96 250.72 97.04 246.88C93.6 243.52 91.28 238.96 89.84 231.12C88.32 222.96 87.92 212.24 87.84 197.04A10.48 10.48 0 0 0 77.28 186.72A10.48 10.48 0 0 0 66.8 197.2C66.88 210.72 67.2 222.16 68.64 231.76C41.28 231.68 26.72 230.8 17.44 221.6C7.12 211.44 7.12 195.12 7.12 162.48zM41.76 120.48A10.32 10.32 0 0 0 41.76 135.2L69.84 162.88A10.64 10.64 0 0 0 84.72 162.88A10.32 10.32 0 0 0 84.72 148.24L74.64 138.24H175.52C181.36 138.24 186.08 133.6 186.08 127.84C186.08 122.0800000000001 181.36 117.44 175.52 117.44H74.64L84.72 107.44A10.32 10.32 0 0 0 84.72 92.8A10.64 10.64 0 0 0 69.84 92.8L41.76 120.48z" />
    <glyph glyph-name="Magic-Stick"
      unicode="&#xEA43;"
      horiz-adv-x="273.06666666666666" d="M197.376 254.3786666666667C208.2133333333333 248.832 208.64 232.3626666666667 209.408 199.424L209.5786666666667 190.8906666666667C209.8346666666667 181.504 209.92 176.896 211.8826666666667 172.8C213.76 168.7893333333333 217.344 165.8026666666667 224.3413333333333 159.9146666666667L230.7413333333334 154.624C255.488 133.888 267.9466666666667 123.5626666666667 265.6426666666667 111.2746666666667C263.3386666666667 98.9866666666667 247.808 92.928 216.832 80.8106666666667L208.8106666666667 77.7386666666667C200.0213333333334 74.3253333333333 195.584 72.6186666666667 192.256 69.2906666666667S187.136 61.696 183.4666666666667 52.992L180.1386666666667 44.9706666666667C167.2533333333334 14.1653333333333 160.8533333333334 -1.28 148.5653333333334 -3.2426666666667C136.2773333333334 -5.2906666666667 126.2933333333334 7.5093333333334 106.3253333333334 32.9386666666667L101.2053333333334 39.5093333333333C95.488 46.7626666666667 92.672 50.3466666666667 88.7466666666667 52.3946666666667C84.736 54.4426666666667 80.128 54.6986666666667 70.8266666666667 55.2106666666667L62.2933333333334 55.6373333333333C29.5253333333334 57.344 13.2266666666667 58.1973333333334 7.936 69.2053333333334C2.6453333333334 80.2133333333334 12.032 94.1226666666667 30.6346666666667 121.9413333333334L35.4986666666667 129.1093333333334C40.7893333333334 137.0453333333334 43.4346666666667 140.9706666666667 44.288 145.4933333333334C45.1413333333334 150.016 44.1173333333334 154.5386666666667 41.984 163.4986666666667L40.1066666666667 171.776C32.6826666666667 203.6053333333334 29.0133333333334 219.5626666666667 38.0586666666667 228.352C47.104 237.1413333333334 62.8053333333334 233.0453333333334 94.3786666666667 224.768L102.4853333333334 222.6346666666667C111.4453333333333 220.2453333333334 115.8826666666667 219.136 120.4053333333334 219.904C124.928 220.672 128.9386666666667 223.232 136.96 228.2666666666667L144.2133333333334 232.96C172.3733333333333 250.9653333333334 186.4533333333334 259.9253333333334 197.376 254.3786666666667zM233.8986666666667 42.4106666666667L259.84 16.4693333333333A9.728 9.728 0 1 0 246.016 2.6453333333333L220.0746666666667 28.5866666666666A9.728 9.728 0 1 0 233.8986666666667 42.4106666666667z" />
    <glyph glyph-name="Magnet"
      unicode="&#xEA44;"
      horiz-adv-x="256" d="M182.4 256V192H140.8A64 64 0 0 1 140.8 64H182.4V0H140.8C70.08 0 12.8 57.28 12.8 128S70.08 256 140.8 256H182.4zM201.6 192V256H224A19.2 19.2 0 0 0 243.2 236.8V211.2A19.2 19.2 0 0 0 224 192H201.6zM201.6 64H224A19.2 19.2 0 0 0 243.2 44.8V19.2A19.2 19.2 0 0 0 224 0H201.6V64z" />
    <glyph glyph-name="Map"
      unicode="&#xEA45;"
      horiz-adv-x="256" d="M5.6 215.68C7.6 217.92 10 219.76 12.64 221.04C20.24 224.56 30.16 221.12 50.08 214.16C58.32 211.28 64.24 209.28 69.2 208A7.04 7.04 0 0 0 74.64 201.36V7.44C74.64 3.52 71.2 0.56 67.44 1.52C61.68 3.04 54.72 5.44 45.76 8.56L29.2 14.32C15.12 19.2 8.08 21.6 4 27.44C0 33.28 0 40.96 0 56.48V176.64C0 198.4 0 209.36 5.6 215.68zM135.92 237.04C141.84 241.2 146.8 244.56 151.12 247.36C155.12 249.92 160 246.96 160 242.16V49.6C160 47.2 158.64 44.96 156.48 43.68C152 41.12 146.8 37.52 139.76 32.56L120.08 18.96C114.16 14.8 109.2 11.44 104.88 8.64C100.88 6.08 96 9.04 96 13.84V206.4C96 208.8 97.36 211.04 99.52 212.32C104 214.88 109.2 218.48 116.24 223.44L135.92 237.04zM226.8 241.68C240.88 236.8 247.92 234.32 252 228.56C256 222.72 256 215.04 256 199.52V79.36C256 57.6 256 46.64 250.4 40.32A21.44 21.44 0 0 0 243.36 34.96C235.76 31.44 225.84 34.88 205.92 41.84C197.68 44.72 191.76 46.72 186.8 48A7.04 7.04 0 0 0 181.36 54.64V248.56C181.36 252.48 184.8 255.44 188.56 254.48C194.32 252.96 201.28 250.56 210.24 247.44L226.8 241.68z" />
    <glyph glyph-name="Map-Point"
      unicode="&#xEA46;"
      horiz-adv-x="256" d="M128 256C71.44 256 25.6 204.8 25.6 147.2C25.6 90.08 58.24 28 109.28 4.16A44.08 44.08 0 0 1 146.72 4.16C197.68 28 230.4 90.08 230.4 147.2C230.4 204.8 184.56 256 128 256zM128 128A25.6 25.6 0 1 1 128 179.2A25.6 25.6 0 0 1 128 128z" />
    <glyph glyph-name="Maximize-Square-3"
      unicode="&#xEA47;"
      horiz-adv-x="256" d="M0 51.2C0 75.36 0 87.36 7.52 94.88C15.04 102.4 27.04 102.4 51.2 102.4C75.36 102.4 87.36 102.4 94.88 94.88C102.4 87.36 102.4 75.36 102.4 51.2C102.4 27.04 102.4 15.04 94.88 7.52C87.36 0 75.36 0 51.2 0C27.04 0 15.04 0 7.52 7.52C0 15.04 0 27.04 0 51.2zM18.72 237.28C37.44 256 67.68 256 128 256C188.32 256 218.48 256 237.28 237.28C256 218.56 256 188.32 256 128C256 67.68 256 37.52 237.28 18.72C218.56 0 188.32 0 128 0L113.44 0C117.68 6.48 119.6 13.68 120.48 20.56C121.6 28.8 121.6 38.96 121.6 50.08V52.32C121.6 63.44 121.6 73.6 120.48 81.84C119.28 90.96 116.4 100.56 108.48 108.48C100.56 116.4 90.96 119.28 81.84 120.48C73.6 121.6 63.44 121.6 52.32 121.6H50.08C38.96 121.6 28.8 121.6 20.56 120.48C13.68 119.52 6.48 117.68 0 113.44L0 128C0 188.32 0 218.48 18.72 237.2800000000001zM144 201.6A9.6 9.6 0 0 1 144 182.4H168.8L121.2 134.8A9.6 9.6 0 1 1 134.8 121.2L182.4 168.8V144A9.6 9.6 0 0 1 201.6 144V192A9.6 9.6 0 0 1 192 201.6H144z" />
    <glyph glyph-name="Mention-Circle"
      unicode="&#xEA48;"
      horiz-adv-x="256" d="M128 256C198.72 256 256 198.72 256 128S198.72 0 128 0S0 57.28 0 128S57.28 256 128 256zM60.8 128A67.2 67.2 0 1 0 191.2 104.96A10.24 10.24 0 0 0 188.4 101.12L187.36 100.16A11.36 11.36 0 0 0 168.32 108.48V128A40.32 40.32 0 1 1 152 95.6A30.56 30.56 0 0 1 200.4 86.08L201.44 86.96C204.64 89.92 207.52 93.68 209.2 98.4A86.4 86.4 0 1 1 128 41.6A9.6 9.6 0 0 1 128 60.8A67.2 67.2 0 0 0 60.8 128zM128 149.12A21.12 21.12 0 1 0 128 106.88A21.12 21.12 0 0 0 128 149.12z" />
    <glyph glyph-name="Menu-Dots-Square"
      unicode="&#xEA49;"
      horiz-adv-x="256" d="M18.72 237.28C0 218.56 0 188.32 0 128C0 67.68 0 37.52 18.72 18.72C37.44 0 67.68 0 128 0C188.32 0 218.48 0 237.28 18.72C256 37.44 256 67.68 256 128C256 188.32 256 218.48 237.28 237.28C218.56 256 188.32 256 128 256C67.68 256 37.52 256 18.72 237.28zM128 115.2A12.8 12.8 0 1 1 128 140.8A12.8 12.8 0 0 1 128 115.2zM89.6 128A12.8 12.8 0 1 0 64 128A12.8 12.8 0 0 0 89.6 128zM179.2 115.2A12.8 12.8 0 1 1 179.2 140.8A12.8 12.8 0 0 1 179.2 115.2z" />
    <glyph glyph-name="Move-To-Folder"
      unicode="&#xEA4A;"
      horiz-adv-x="256" d="M256 130.56V102.4C256 54.16 256 30 240.96 15.04C226 0 201.84 0 153.6 0H102.4C54.16 0 30 0 15.04 15.04C2.56 27.52 0.48 46.32 0.08 80H111.28L82.32 58.96A9.6 9.6 0 1 1 93.68 43.44L146.48 81.84A9.6 9.6 0 0 1 146.48 97.36L93.68 135.76A9.6 9.6 0 1 1 82.32 120.24L111.28 99.2H0V192.64C0 203.92 0 209.6 0.88 214.32A51.2 51.2 0 0 0 41.68 255.12C46.4 256 52 256 63.36 256C68.32 256 70.8 256 73.2 255.76C83.44 254.8 93.2 250.8 101.04 244.24C102.88 242.7200000000001 104.64 240.96 108.16 237.44L115.2000000000001 230.4C125.6800000000001 219.92 130.8800000000001 214.72 137.1200000000001 211.28C140.5600000000001 209.36 144.1600000000001 207.84 148.0000000000001 206.72C154.8800000000001 204.8 162.2400000000001 204.8 176.9600000000001 204.8H181.7600000000001C215.4400000000001 204.8 232.3200000000001 204.8 243.2800000000001 194.96C244.3200000000001 194.08 245.2800000000001 193.12 246.1600000000001 192.08C256.0000000000001 181.12 256.0000000000001 164.24 256.0000000000001 130.56z" />
    <glyph glyph-name="Notification-Lines-Remove"
      unicode="&#xEA4B;"
      horiz-adv-x="256" d="M128 0C67.68 0 37.52 0 18.72 18.72C0 37.44 0 67.68 0 128C0 188.32 0 218.48 18.72 237.28C37.44 256 67.68 256 128 256H131.28C126.08 248.72 123.92 240.56 122.8 232.56C121.6 223.44 121.6 212.16 121.6 199.6V197.2C121.6 184.64 121.6 173.36 122.8 164.24C124.16 154.24 127.28 144.08 135.68 135.68C144.08 127.28 154.32 124.16 164.24 122.8C173.36 121.6 184.64 121.6 197.2 121.6H199.6C212.16 121.6 223.44 121.6 232.5600000000001 122.8C240.5600000000001 123.84 248.7200000000001 126.08 256.0000000000001 131.28V128C256.0000000000001 67.68 256.0000000000001 37.52 237.2800000000001 18.72C218.5600000000001 0 188.3200000000001 0 128.0000000000001 0zM54.4 102.4C54.4 97.12 58.72 92.8 64 92.8H115.2A9.6 9.6 0 0 1 115.2 112H64A9.6 9.6 0 0 1 54.4 102.4zM54.4 57.6C54.4 52.32 58.72 48 64 48H140.8A9.6 9.6 0 0 1 140.8 67.2H64A9.6 9.6 0 0 1 54.4 57.6zM198.4 140.8C171.28 140.8 157.68 140.8 149.2 149.2000000000001C140.8 157.6 140.8 171.2000000000001 140.8 198.4C140.8 225.5200000000001 140.8 239.1200000000001 149.2 247.6C157.6 256.0000000000001 171.2 256.0000000000001 198.4 256.0000000000001C225.52 256.0000000000001 239.12 256.0000000000001 247.6 247.6C256 239.2000000000001 256 225.6 256 198.4C256 171.28 256 157.68 247.6 149.2000000000001C239.2 140.8 225.6 140.8 198.4 140.8zM166 230.8A9.6 9.6 0 0 1 166 217.2L184.8 198.4L166 179.6A9.6 9.6 0 1 1 179.6 166L198.4 184.8L217.2 166A9.6 9.6 0 1 1 230.8 179.6L212 198.4L230.8 217.2A9.6 9.6 0 1 1 217.2 230.8L198.4 212L179.6 230.8A9.6 9.6 0 0 1 166 230.8z" />
    <glyph glyph-name="Notification-Remove"
      unicode="&#xEA4C;"
      horiz-adv-x="256" d="M198.4 140.8C171.28 140.8 157.68 140.8 149.2 149.2C140.8 157.6 140.8 171.2 140.8 198.4C140.8 225.52 140.8 239.12 149.2 247.6C157.6 256 171.2 256 198.4 256C225.52 256 239.12 256 247.6 247.6C256 239.2 256 225.6 256 198.4C256 171.28 256 157.68 247.6 149.2C239.2 140.8 225.6 140.8 198.4 140.8zM166 230.8A9.6 9.6 0 0 1 166 217.2L184.8 198.4L166 179.6A9.6 9.6 0 1 1 179.6 166L198.4 184.8L217.2 166A9.6 9.6 0 1 1 230.8 179.6L212 198.4L230.8 217.2A9.6 9.6 0 1 1 217.2 230.8L198.4 212L179.6 230.8A9.6 9.6 0 0 1 166 230.8zM128 0C67.68 0 37.52 0 18.72 18.72C0 37.44 0 67.68 0 128C0 188.32 0 218.48 18.72 237.28C37.44 256 67.68 256 128 256H131.28C126.08 248.72 123.92 240.56 122.8 232.56C121.6 223.44 121.6 212.16 121.6 199.6V197.2C121.6 184.64 121.6 173.36 122.8 164.24C124.16 154.24 127.28 144.08 135.68 135.68C144.08 127.28 154.32 124.16 164.24 122.8C173.36 121.6 184.64 121.6 197.2 121.6H199.6C212.16 121.6 223.44 121.6 232.5600000000001 122.8C240.5600000000001 123.84 248.7200000000001 126.08 256.0000000000001 131.28V128C256.0000000000001 67.68 256.0000000000001 37.52 237.2800000000001 18.72C218.5600000000001 0 188.3200000000001 0 128.0000000000001 0z" />
    <glyph glyph-name="Notification-Unread"
      unicode="&#xEA4D;"
      horiz-adv-x="256" d="M128 0C67.68 0 37.52 0 18.72 18.72C0 37.44 0 67.68 0 128C0 188.32 0 218.48 18.72 237.28C37.44 256 67.68 256 128 256C145.92 256 161.12 256 174.24 255.52A57.6 57.6 0 0 1 255.52 174.24C256 161.12 256 145.92 256 128C256 67.68 256 37.52 237.28 18.72C218.56 0 188.32 0 128 0zM256 217.6A38.4 38.4 0 1 0 179.2 217.6A38.4 38.4 0 0 0 256 217.6z" />
    <glyph glyph-name="Notification-Unread-Lines"
      unicode="&#xEA4E;"
      horiz-adv-x="256" d="M256 217.6A38.4 38.4 0 1 0 179.2 217.6A38.4 38.4 0 0 0 256 217.6zM18.72 18.72C0 37.44 0 67.68 0 128C0 188.32 0 218.48 18.72 237.28C37.44 256 67.68 256 128 256C145.92 256 161.12 256 174.24 255.52A57.6 57.6 0 0 1 255.52 174.24C256 161.12 256 145.92 256 128C256 67.68 256 37.52 237.28 18.72C218.56 0 188.32 0 128 0C67.68 0 37.52 0 18.72 18.72zM54.4 57.6C54.4 52.32 58.72 48 64 48H140.8A9.6 9.6 0 0 1 140.8 67.2H64A9.6 9.6 0 0 1 54.4 57.6z" />
    <glyph glyph-name="Palette"
      unicode="&#xEA4F;"
      horiz-adv-x="256" d="M103.04 204.8V51.2C103.04 33.28 103.04 24.32 99.52 17.44A32.16 32.16 0 0 0 85.6 3.52C78.72 0 69.76 0 51.84 0C33.92 0 24.96 0 18.08 3.52A32 32 0 0 0 4.16 17.44C0.64 24.32 0.64 33.28 0.64 51.2V204.8C0.64 222.72 0.64 231.68 4.16 238.56C7.2 244.56 12.08 249.44 18.16 252.48C24.96 256 33.92 256 51.84 256C69.76 256 78.72 256 85.6 252.48C91.6 249.44 96.48 244.48 99.52 238.56C103.04 231.68 103.04 222.72 103.04 204.8zM64.64 28.8A9.6 9.6 0 0 1 64.64 48H39.04A9.6 9.6 0 0 1 39.04 28.8H64.64zM219.04 145.76L144.32 67.76C134.96 58 130.32 53.12 126.24 54.8C122.24 56.4 122.24 63.12 122.24 76.64V182.08C122.24 190.56 125.6 198.64 131.6 204.64L145.12 218.16L150.56 222.32C163.3600000000001 232.16 169.84 237.04 176.88 238.56A31.92 31.92 0 0 0 194.16 237.52C200.88 235.2 206.72 229.52 218.24 218.16C231.04 205.36 237.44 198.96 239.84 191.6C241.84 185.36 241.92 178.64 239.92 172.4C237.68 165.04 231.4400000000001 158.64 219.04 145.76zM138.72 0C129.6 0 122.24 7.76 122.24 16.88C122.24 21.28 124 25.12 127.04 28.16L201.36 102.4H204.16C222.0800000000001 102.4 231.04 102.4 237.8400000000001 98.88C243.8400000000001 95.84 248.7200000000001 90.88 251.8400000000001 84.96C255.3600000000001 78.08 255.3600000000001 69.12 255.3600000000001 51.2C255.3600000000001 33.28 255.3600000000001 24.32 251.8400000000001 17.44C248.8000000000001 11.44 243.8400000000001 6.56 237.8400000000001 3.52C231.04 0 222.0800000000001 0 204.16 0H138.72z" />
    <glyph glyph-name="Paw"
      unicode="&#xEA50;"
      horiz-adv-x="256" d="M71.28 78.4C91.6 119.68 101.68 140.4 116.4 145.28A36.48 36.48 0 0 0 139.68 145.28C154.24 140.32 164.4 119.68 184.72 78.4L195.92 55.52C201.2 44.88 203.76 39.52 204.4 35.84C206.96 20.72 195.84 6.88 180.8 6.4C177.2 6.32 171.52 7.84 160.24 10.96A220.8 220.8 0 0 1 147.28 14.32A97.12 97.12 0 0 1 108.72 14.32C105.52 13.68 102.24 12.72 95.76 10.96C84.48 7.84 78.8 6.32 75.2 6.4C60.16 6.88 48.96 20.72 51.6 35.84C52.24 39.44 54.8 44.8 60.08 55.52L71.36 78.4zM53.04 204.48C47.76 225.36 54.16 245.28 67.28 248.96C80.4 252.72 95.28 238.8 100.56 217.92C105.84 197.04 99.44 177.12 86.32 173.44C73.2 169.76 58.32 183.6 53.04 204.48zM202.96 204.48C197.68 183.6 182.8 169.68 169.68 173.44C156.56 177.2 150.16 197.12 155.44 217.92C160.72 238.8 175.6 252.72 188.72 248.96C201.84 245.2 208.16 225.28 202.96 204.48zM2.56 117.76C-3.2 133.2 0.96 148.8 12 152.72C22.96 156.56 36.48 147.2 42.24 131.84C48 116.4 43.84 100.8 32.8 96.88C21.84 93.04 8.32 102.4 2.56 117.76zM253.44 117.76C247.68 102.32 234.16 92.96 223.2 96.88C212.24 100.72 208.08 116.4 213.76 131.84C219.52 147.28 233.04 156.64 244 152.72C254.96 148.88 259.12 133.2 253.44 117.76z" />
    <glyph glyph-name="Pen-2"
      unicode="&#xEA51;"
      horiz-adv-x="256" d="M21.28 11.28A9.12 9.12 0 0 0 30.4 20.4H224.96A9.12 9.12 0 0 0 224.96 2.16H30.4A9.12 9.12 0 0 0 21.28 11.28zM121.84 97.28C116.24 91.68 113.44 88.88 110.32 86.4C106.64 83.52 102.72 81.12 98.56 79.12C95.04 77.44 91.28 76.16 83.68 73.68L44 60.48A10.32 10.32 0 0 0 30.96 73.52L44.16 113.2C46.64 120.72 47.92 124.48 49.6 128.08C51.6 132.24 54 136.24 56.88 139.84C59.28 142.96 62.08 145.76 67.76 151.36L139.68 223.28A100.32 100.32 0 0 1 161.44 190.96A100.08 100.08 0 0 1 193.76 169.2L121.84 97.28zM213.76 189.2L205.12 180.56L204.08 180.88A85.2 85.2 0 0 0 171.76 201.28A85.12 85.12 0 0 0 151.36 233.6L151.04 234.64L159.68 243.28A38.24 38.24 0 0 0 213.76 189.2z" />
    <glyph glyph-name="Pie-Chart-2"
      unicode="&#xEA52;"
      horiz-adv-x="256" d="M56.64 225.28A120.96 120.96 0 0 0 74.56 235.2C92.16 243.04 100.88 247.04 112.56 239.44C124.24 231.84 124.24 219.44 124.24 194.64V175.44C124.24 151.28 124.24 139.2 131.76 131.68C139.28 124.16 151.28 124.16 175.44 124.24H194.64C219.44 124.24 231.8400000000001 124.24 239.44 112.56C247.04 100.88 243.12 92.08 235.2 74.48A121.68 121.68 0 0 0 100.48 4.96A121.68 121.68 0 0 0 4.96 100.48A121.6 121.6 0 0 0 56.64 225.2800000000001zM251.52 193.76C259.28 174 241.44 156.24 220.24 156.24H169.04A12.8 12.8 0 0 0 156.24 169.04V220.24C156.24 241.44 174 259.2800000000001 193.68 251.52A102.72 102.72 0 0 0 251.52 193.76z" />
    <glyph glyph-name="Pie-Chart-3"
      unicode="&#xEA53;"
      horiz-adv-x="256" d="M57.44 226.8A122.32 122.32 0 0 0 77.68 237.68C94.72 244.88 103.28 248.48 114.16 241.28S125.04 222.24 125.04 198.64V174.32C125.04 151.36 125.04 139.92 132.16 132.8C139.28 125.68 150.72 125.68 173.68 125.68H198C221.6 125.68 233.44 125.68 240.64 114.8S244.24 95.36 237.04 78.32A121.68 121.68 0 0 0 101.28 6.4A121.6 121.6 0 0 0 12.72 172.24A121.68 121.68 0 0 0 57.44 226.8zM146.64 245.76A9.12 9.12 0 0 0 157.68 252.24A130.96 130.96 0 0 0 251.6 158.32A9.12 9.12 0 0 0 234 153.84A112.72 112.72 0 0 1 153.12 234.64A9.12 9.12 0 0 0 146.64 245.76z" />
    <glyph glyph-name="Pin"
      unicode="&#xEA54;"
      horiz-adv-x="256" d="M215.04 179.36L178.96 215.44C154.32 240.16 142 252.48 128.8 249.52C115.6 246.64 109.6 230.24 97.52 197.44L89.44 175.28C86.24 166.56 84.64 162.16 81.76 158.8A24.96 24.96 0 0 0 77.36 154.8C73.76 152.24 69.28 150.96 60.32 148.48C40.16 142.88 30.08 140.16 26.24 133.52A18.64 18.64 0 0 1 23.76 124.16C23.84 116.56 31.2 109.12 46 94.24L63.2 77.04L8.8 22.56A9.28 9.28 0 0 1 8.8 9.44A9.28 9.28 0 0 1 21.92 9.44L76.32 63.92L94.16 46.08C109.04 31.2 116.56 23.68 124.24 23.68C127.44 23.68 130.64 24.48 133.44 26.1599999999999C140.08 29.9999999999999 142.88 40.1599999999999 148.48 60.4C150.96 69.36 152.16 73.84 154.72 77.4399999999999C155.84 79.0399999999999 157.12 80.4799999999999 158.64 81.7599999999999C162 84.6399999999999 166.32 86.3199999999999 175.04 89.5199999999999L197.44 97.9199999999999C229.84 110.0799999999999 246 116.16 248.88 129.3599999999999C251.76 142.56 239.52 154.7999999999999 215.04 179.3599999999999z" />
    <glyph glyph-name="Plain"
      unicode="&#xEA55;"
      horiz-adv-x="256" d="M212.96 81.04L234.88 146.96C254.08 204.56 263.68 233.36 248.48 248.48C233.28 263.68 204.48 254.08 146.96 234.88L81.04 212.96C34.56 197.44 11.36 189.68 4.72 178.32A34.8 34.8 0 0 1 4.72 143.36C11.36 132 34.56 124.24 81.04 108.8C86.8 106.88 93.28 108.24 97.6 112.48L168.08 182.32A10.08 10.08 0 1 0 182.24 168L112.96 99.28A17.84 17.84 0 0 1 108.8 81.04C124.32 34.56 132 11.36 143.36 4.72A34.8 34.8 0 0 1 178.32 4.72C189.68 11.36 197.44 34.56 212.96 81.04z" />
    <glyph glyph-name="Plate"
      unicode="&#xEA56;"
      horiz-adv-x="256" d="M136.32 226.96V203.76A8.72 8.72 0 0 0 118.88 203.76V226.96A8.72 8.72 0 0 0 136.32 226.96zM252.32 121.92C252.32 100.64 252.32 83.76 250.56 70.56C248.72 56.96 244.88 46 236.16 37.2C227.44 28.56 216.48 24.64 202.88 22.88C189.68 21.12 172.8 21.12 151.44 21.12H103.76C82.4 21.12 65.52 21.12 52.32 22.88C38.72 24.72 27.68 28.56 19.04 37.2C10.4 45.92 6.48 56.88 4.64 70.56C2.88 83.76 2.88 100.64 2.88 121.92V125.2L2.88 132.72C2.88 137.2 2.88 141.44 2.96 145.44C3.12 156.72 3.52 166.48 4.64 174.64C6.48 188.24 10.32 199.28 19.04 208C27.76 216.64 38.72 220.56 52.32 222.32C60.64 223.44 70.4 223.84 81.84 224L89.92 224.08A11.6 11.6 0 0 0 101.52 212.48V203.84A26.08 26.08 0 1 1 153.68 203.84V212.48A11.6 11.6 0 0 0 165.28 224.08C180.24 224 192.64 223.68 202.88 222.32C216.48 220.48 227.52 216.64 236.16 208C244.8 199.28 248.72 188.32 250.56 174.64C252.32 161.44 252.32 144.56 252.32 123.28V121.92zM81.2 108.08A8.72 8.72 0 0 1 81.2 90.72H144.96A8.72 8.72 0 0 1 144.96 108.08H81.2zM81.2 148.72A8.72 8.72 0 0 1 81.2 131.28H174A8.72 8.72 0 0 1 174 148.72H81.2z" />
    <glyph glyph-name="Posts-Carousel-Horizontal"
      unicode="&#xEA57;"
      horiz-adv-x="256" d="M44.8 76.8A38.4 38.4 0 0 0 6.4 38.4A6.4 6.4 0 0 0 0 44.8V211.2A6.4 6.4 0 0 0 6.4 217.6A38.4 38.4 0 0 0 44.8 179.2V76.8zM134.4 217.6C158.56 217.6 170.56 217.6 178.08 210.0800000000001C185.6 202.56 185.6 190.56 185.6 166.4V89.6C185.6 65.44 185.6 53.44 178.08 45.92C170.56 38.4 158.56 38.4 134.4 38.4H121.6C97.44 38.4 85.44 38.4 77.92 45.92C70.4 53.44 70.4 65.44 70.4 89.6V166.4C70.4 190.56 70.4 202.56 77.92 210.08C85.44 217.6 97.44 217.6 121.6 217.6H134.4zM211.2 179.2A38.4 38.4 0 0 0 249.6 217.6A6.4 6.4 0 0 0 256 211.2V44.8A6.4 6.4 0 0 0 249.6 38.4A38.4 38.4 0 0 0 211.2 76.8V179.2z" />
    <glyph glyph-name="Posts-Carousel-Vertical"
      unicode="&#xEA58;"
      horiz-adv-x="256" d="M76.8 211.2A38.4 38.4 0 0 0 38.4 249.6A6.4 6.4 0 0 0 44.8 256H211.2A6.4 6.4 0 0 0 217.6 249.6A38.4 38.4 0 0 0 179.2 211.2H76.8zM38.4 134.4C38.4 158.56 38.4 170.56 45.92 178.08C53.44 185.6 65.44 185.6 89.6 185.6H166.4C190.56 185.6 202.56 185.6 210.08 178.08C217.6 170.56 217.6 158.56 217.6 134.4V121.6C217.6 97.44 217.6 85.44 210.08 77.92C202.56 70.4 190.56 70.4 166.4 70.4H89.6C65.44 70.4 53.44 70.4 45.92 77.92C38.4 85.44 38.4 97.44 38.4 121.6V134.4zM179.2 44.8A38.4 38.4 0 0 0 217.6 6.4A6.4 6.4 0 0 0 211.2 0H44.8A6.4 6.4 0 0 0 38.4 6.4A38.4 38.4 0 0 0 76.8 44.8H179.2z" />
    <glyph glyph-name="Power"
      unicode="&#xEA59;"
      horiz-adv-x="256" d="M136.32 241.76V189.04C136.32 183.6 132.4 179.2 127.6 179.2S118.88 183.6 118.88 189.04V241.76C118.88 247.2 122.8 251.6 127.6 251.6S136.32 247.2 136.32 241.76zM90.4 206.48A95.76 95.76 0 0 1 127.6 22.56A95.68 95.68 0 0 1 164.8 206.48A8.72 8.72 0 0 0 171.6 222.56A113.12 113.12 0 0 0 240.7200000000001 118.32A113.12 113.12 0 0 0 127.6 5.2A113.12 113.12 0 0 0 14.48 118.32A113.12 113.12 0 0 0 83.6 222.56A8.72 8.72 0 0 0 90.4 206.48z" />
    <glyph glyph-name="Presentation-Graph"
      unicode="&#xEA5A;"
      horiz-adv-x="256" d="M11.6 253.12A8.72 8.72 0 0 1 11.6 235.68H34.8V145.84C34.8 110.32 34.8 92.56 46.48 81.44S76.88 70.4 114.32 70.4H118.88V29.36L100.48 20.16A8.72 8.72 0 1 1 108.32 4.64L127.6 14.24L146.88 4.64A8.72 8.72 0 1 1 154.72 20.16L136.32 29.36V70.4H140.88C178.4 70.4 197.12 70.4 208.72 81.44C220.4 92.48 220.4 110.24 220.4 145.84V235.68H243.6A8.72 8.72 0 0 1 243.6 253.12H11.6zM168.56 175.12A8.72 8.72 0 0 0 168.56 162.88L153.28 147.6C151.6 145.92 149.76 144.08 148 142.72A14.4 14.4 0 0 0 139.2 139.52C135.36 139.52 132.4 141.2 130.4 142.72C128.64 144 126.8 145.84 125.12 147.6L118.08 154.64L116 156.72L113.92 154.64L98.96 139.68A8.72 8.72 0 1 0 86.64 151.92L101.92 167.2C103.6 168.88 105.44 170.72 107.2 172.08C109.28 173.6 112.16 175.36 116 175.28C119.84 175.28 122.8 173.6 124.8 172.08C126.56 170.72 128.4 168.96 130.08 167.2L137.12 160.16L139.2 158.08L141.28 160.16L156.24 175.12A8.72 8.72 0 0 0 168.56 175.12z" />
    <glyph glyph-name="Question-Square"
      unicode="&#xEA5B;"
      horiz-adv-x="256" d="M128 0C67.68 0 37.52 0 18.72 18.72C0 37.44 0 67.68 0 128C0 188.32 0 218.48 18.72 237.28C37.44 256 67.68 256 128 256C188.32 256 218.48 256 237.28 237.28C256 218.56 256 188.32 256 128C256 67.68 256 37.52 237.28 18.72C218.56 0 188.32 0 128 0zM128 182.4C120.08 182.4 113.6 175.92 113.6 168A9.6 9.6 0 0 0 94.4 168A33.6 33.6 0 1 0 152.08 144.56C150.88 143.36 149.76 142.24 148.72 141.2A83.84 83.84 0 0 1 141.44 133.28C138.64 129.68 137.6 127.04 137.6 124.8V115.2A9.6 9.6 0 0 0 118.4 115.2V124.8C118.4 133.2 122.32 140 126.24 145.04C129.2 148.8 132.88 152.48 135.84 155.44L138.32 158A14.4 14.4 0 0 1 128 182.4zM128 64A12.8 12.8 0 1 1 128 89.6A12.8 12.8 0 0 1 128 64z" />
    <glyph glyph-name="Refresh"
      unicode="&#xEA5C;"
      horiz-adv-x="256" d="M128.48 241.52A106.24 106.24 0 0 0 219.12 190.96A8.72 8.72 0 0 0 204.32 181.84A88.8 88.8 0 0 1 128.48 224.08C82.4 224.08 44.56 189.28 40.24 144.8H50.56A8.72 8.72 0 0 0 56.72 129.92L37.2 110.64A8.64 8.64 0 0 0 24.96 110.64L5.44 129.92A8.72 8.72 0 0 0 11.6 144.8H22.72C27.2 198.96 72.88 241.44 128.48 241.52zM230.16 146.16L249.68 126.88A8.72 8.72 0 0 0 243.6 112H232.4C227.92 57.84 182 15.36 126.24 15.28A106.72 106.72 0 0 0 35.28 65.84A8.72 8.72 0 0 0 50.08 74.96A89.28 89.28 0 0 1 126.24 32.72C172.56 32.72 210.48 67.6 214.88 112H204.48A8.72 8.72 0 0 0 198.4 126.88L217.92 146.16A8.72 8.72 0 0 0 230.16 146.16z" />
    <glyph glyph-name="Reorder"
      unicode="&#xEA5D;"
      horiz-adv-x="256" d="M95.12 230.16H157.2C170.96 230.16 182.24 230.16 191.12 228.96C200.4 227.68 208.48 225.04 214.88 218.56C221.36 212.16 224 204.08 225.28 194.8C226.48 185.92 226.48 174.64 226.48 160.88V145.76L235.2 154.56A9.12 9.12 0 1 0 248.16 141.6L223.84 117.28A9.12 9.12 0 0 0 210.88 117.28L186.56 141.6A9.12 9.12 0 1 0 199.52 154.56L208.24 145.76V160.24C208.24 174.8 208.24 184.88 207.2 192.4C206.24 199.68 204.48 203.2 202 205.68C199.5200000000001 208.16 196 209.92 188.72 210.88C181.2 211.92 171.2 211.92 156.56 211.92H95.76C81.2 211.92 71.12 211.92 63.6 210.88C56.32 209.92 52.8 208.16 50.32 205.68C47.84 203.2 46.08 199.68 45.12 192.4C44.08 184.88 44.08 174.88 44.08 160.24V87.2C49.76 87.04 53.36 86.48 56.24 84.8C59.04 83.2 61.28 80.88 62.96 78.16C65.36 73.92 65.36 68.24 65.36 56.88S65.36 39.84 62.96 35.6A18.32 18.32 0 0 0 56.24 28.96C52 26.56 46.32 26.56 34.96 26.48S17.92 26.48 13.68 28.96A18.32 18.32 0 0 0 7.04 35.6C4.64 39.84 4.64 45.52 4.56 56.88C4.56 68.24 4.56 73.92 7.04 78.16C8.64 80.96 10.96 83.2 13.68 84.8C16.56 86.48 20.16 87.04 25.84 87.2V160.88C25.84 174.64 25.84 185.92 27.04 194.8C28.32 204.08 30.96 212.16 37.44 218.56C43.92 224.96 51.92 227.68 61.2000000000001 228.96C70.08 230.16 81.36 230.16 95.1200000000001 230.16zM98.24 78.16C99.84 80.96 102.16 83.2 104.88 84.8C109.12 87.28 114.8 87.28 126.16 87.28S143.2 87.28 147.44 84.8C150.24 83.2 152.48 80.88 154.08 78.16C156.56 73.92 156.56 68.24 156.56 56.88S156.56 39.84 154.16 35.6A18.32 18.32 0 0 0 147.44 28.96C143.2 26.56 137.52 26.56 126.16 26.48S109.12 26.48 104.88 28.96A18.32 18.32 0 0 0 98.24 35.6C95.84 39.84 95.84 45.52 95.76 56.88C95.76 68.24 95.76 73.92 98.24 78.16zM186.96 56.88C186.96 68.24 186.96 73.92 189.44 78.16C191.04 80.96 193.36 83.2 196.08 84.8C200.32 87.28 206 87.28 217.36 87.28S234.4 87.28 238.64 84.8C241.44 83.2 243.68 80.88 245.28 78.16C247.76 73.92 247.76 68.24 247.76 56.88S247.76 39.84 245.36 35.6A18.32 18.32 0 0 0 238.64 28.96C234.4 26.56 228.72 26.56 217.36 26.48S200.32 26.48 196.08 28.96A18.32 18.32 0 0 0 189.44 35.6C187.04 39.84 187.04 45.52 186.96 56.88z" />
    <glyph glyph-name="Revote"
      unicode="&#xEA5E;"
      horiz-adv-x="256" d="M109.44 252.48C112.72 251.12 114.8 247.92 114.88 244.4V233.04H128.24C152.24 233.04 171.2 233.04 186.08 231.04C201.28 228.96 213.44 224.64 222.88 214.96C232.4 205.28 236.64 193.04 238.72 177.68C240.72 162.72 240.72 143.44 240.72 119.04V117.76C240.72 93.36 240.72 74.16 238.72 59.12C236.64 43.76 232.4 31.52 222.88 21.84C213.36 12.16 201.2 7.84 186.08 5.68C171.28 3.68 152.32 3.68 128.24 3.68H126.96C102.96 3.68 84 3.68 69.12 5.68C53.92 7.76 41.76 12.08 32.32 21.84C22.8 31.52 18.56 43.76 16.48 59.12C14.48 74.08 14.48 93.36 14.48 117.76V119.04C14.48 143.44 14.48 162.64 16.48 177.68C18.56 193.04 22.8 205.28 32.32 214.96A8.72 8.72 0 1 0 44.72 202.72C38.96 196.88 35.52 188.88 33.76 175.36C31.92 161.6 31.92 143.6 31.92 118.4C31.92 93.2 31.92 75.12 33.76 61.36C35.52 47.84 38.96 39.84 44.72 34C50.48 28.16 58.32 24.72 71.52 22.96C85.04 21.12 102.72 21.12 127.6 21.12C152.48 21.12 170.24 21.12 183.68 22.96C196.88 24.8 204.72 28.16 210.48 34C216.24 39.84 219.68 47.84 221.44 61.36C223.28 75.12 223.28 93.12 223.28 118.4C223.28 143.6 223.28 161.68 221.44 175.36C219.68 188.8 216.24 196.88 210.48 202.72C204.72 208.56 196.88 212 183.68 213.84C170.16 215.68 152.48 215.68 127.6 215.68L114.88 215.68V203.2A8.72 8.72 0 1 0 99.92 197.04L79.68 217.68A8.72 8.72 0 0 0 79.68 229.92L99.92 250.48A8.72 8.72 0 0 0 109.44 252.48zM174.32 139.68L116.32 81.68A8.72 8.72 0 0 0 104.08 81.68L80.88 104.88A8.72 8.72 0 1 0 93.12 117.12L110.24 100.08L162.08 151.92A8.72 8.72 0 1 0 174.32 139.68z" />
    <glyph glyph-name="Round-Graph"
      unicode="&#xEA5F;"
      horiz-adv-x="256" d="M0 128C0 198.72 57.28 256 128 256S256 198.72 256 128S198.72 0 128 0S0 57.28 0 128zM118.4 217.6A9.6 9.6 0 0 0 128 227.2A99.2 99.2 0 1 0 28.8 128A9.6 9.6 0 0 0 48 128A80 80 0 1 1 128 208A9.6 9.6 0 0 0 118.4 217.6zM128 188.8A9.6 9.6 0 0 1 128 169.6A41.6 41.6 0 1 0 128 86.4A9.6 9.6 0 0 1 128 67.2A60.8 60.8 0 0 1 128 188.8z" />
    <glyph glyph-name="Ruler-Angular"
      unicode="&#xEA60;"
      horiz-adv-x="256" d="M80 256H51.2C27.04 256 15.04 256 7.52 248.48C0 240.96 0 228.96 0 204.8V176H38.4A9.6 9.6 0 0 0 38.4 156.8H0V137.6H25.6A9.6 9.6 0 0 0 25.6 118.4H0V99.2H38.4A9.6 9.6 0 0 0 38.4 80H0V60.8H25.6A9.6 9.6 0 0 0 25.6 41.6000000000001H0C0 25.76 0.24 17.4400000000001 4.32 11.36A25.6 25.6 0 0 1 11.36 4.3200000000001C17.84 1e-13 26.8 1e-13 44.8 1e-13C62.8 1e-13 71.76 1e-13 78.24 4.3200000000001C81.04 6.1600000000001 83.44 8.5600000000001 85.28 11.36C89.6 17.84 89.6 26.8 89.6 44.8V140.8000000000001C89.6 152.8800000000001 89.6 158.8800000000001 93.36 162.6400000000001C97.12 166.4 103.12 166.4 115.2 166.4H211.2000000000001C229.2000000000001 166.4 238.1600000000001 166.4 244.6400000000001 170.7200000000001C247.4400000000001 172.5600000000001 249.8400000000001 174.96 251.6800000000001 177.7600000000001C256.0000000000001 184.2400000000001 256.0000000000001 193.2000000000001 256.0000000000001 211.2000000000001C256.0000000000001 229.2000000000001 256.0000000000001 238.1600000000001 251.6800000000001 244.6400000000001A25.6 25.6 0 0 1 244.6400000000001 251.6800000000001C238.5600000000001 255.7600000000001 230.3200000000001 256.0000000000001 214.4000000000001 256.0000000000001V230.4000000000001A9.6 9.6 0 0 0 195.2000000000001 230.4000000000001V256.0000000000001H176.0000000000001V217.6000000000001A9.6 9.6 0 0 0 156.8000000000001 217.6000000000001V256.0000000000001H137.6000000000001V230.4000000000001A9.6 9.6 0 0 0 118.4000000000001 230.4000000000001V256.0000000000001H99.2000000000001V217.6000000000001A9.6 9.6 0 0 0 80.0000000000001 217.6000000000001V256.0000000000001z" />
    <glyph glyph-name="SIM-Card"
      unicode="&#xEA61;"
      horiz-adv-x="256" d="M128 0C67.68 0 37.52 0 18.72 18.72C0 37.44 0 67.68 0 128C0 188.32 0 218.48 18.72 237.28C37.44 256 67.68 256 128 256C132.4 256 134.56 256 136.8 255.84A51.84 51.84 0 0 0 165.28 244C166.96 242.56 168.56 240.96 171.68 237.84L237.84 171.68C241.04 168.48 242.56 166.96 244 165.28A51.84 51.84 0 0 0 255.84 136.8C256 134.56 256 132.4 256 128C256 67.68 256 37.52 237.28 18.72C218.56 0 188.32 0 128 0zM88.16 42.72C94.64 38.4 103.6 38.4 121.6 38.4V128C103.6 128 94.64 128 88.16 123.68A25.76 25.76 0 0 1 81.12 116.64C76.8 110.16 76.8 101.2 76.8 83.2C76.8 65.2 76.8 56.24 81.12 49.76A25.6 25.6 0 0 1 88.16 42.72zM167.84 42.72C161.36 38.4 152.4 38.4 134.4 38.4V76.8H179.2C179.12 62.96 178.64 55.44 174.88 49.76A25.44 25.44 0 0 0 167.84 42.72zM134.4 128C152.4 128 161.36 128 167.84 123.68A25.6 25.6 0 0 0 174.88 116.64C178.64 110.96 179.12 103.44 179.2 89.6H134.4V128z" />
    <glyph glyph-name="Scissors"
      unicode="&#xEA62;"
      horiz-adv-x="256" d="M65.6 248.64A8.72 8.72 0 0 1 50.4 240.16L117.6 120.64L86.24 64.72A43.52 43.52 0 1 1 84.64 26.4L127.6 102.8800000000001L170.56 26.4A43.52 43.52 0 1 1 168.96 64.72L137.6 120.6400000000001L204.8 240.1600000000001A8.72 8.72 0 1 1 189.6 248.6400000000001L127.6 138.3200000000001L65.6 248.6400000000001z" />
    <glyph glyph-name="Screen-Share"
      unicode="&#xEA63;"
      horiz-adv-x="256" d="M59.2 223.92C57.6 212.16 57.6 197.52 57.6 180.48V75.52C57.6 58.48 57.6 43.84 59.2 32.08C40.4 32.4 29.52 34 22.16 41.36C12.8 50.72 12.8 65.84 12.8 96V160C12.8 190.16 12.8 205.28 22.16 214.64C29.52 222 40.32 223.6 59.2 223.92zM88.08 244.72C99.28 256 117.44 256 153.6 256H166.4C202.56 256 220.72 256 231.92 244.72C243.2 233.52 243.2 215.36 243.2 179.2V76.8C243.2 40.64 243.2 22.48 231.92 11.28C220.72 0 202.56 0 166.4 0H153.6C117.44 0 99.28 0 88.08 11.28C76.8 22.48 76.8 40.64 76.8 76.8V179.2C76.8 215.36 76.8 233.52 88.08 244.7200000000001zM166.8 186A9.6 9.6 0 0 1 153.2 186L121.2 154A9.6 9.6 0 1 1 134.8 140.4L150.4 156V76.8A9.6 9.6 0 0 1 169.6 76.8V156L185.2 140.4A9.6 9.6 0 1 1 198.8 154L166.8 186z" />
    <glyph glyph-name="Share"
      unicode="&#xEA64;"
      horiz-adv-x="256" d="M151.04 213.36A42.72 42.72 0 0 0 193.92 256A42.72 42.72 0 0 0 236.8 213.36A42.8 42.8 0 0 0 193.92 170.64A42.88 42.88 0 0 0 163.44 183.36L104.08 142.96A42.48 42.48 0 0 0 101.76 118.48L166.8 75.68A42.8 42.8 0 0 0 193.92 85.36C217.6 85.36 236.8 66.24 236.8 42.64S217.6 0 193.92 0A42.72 42.72 0 0 0 151.04 42.64C151.04 48.8 152.32 54.72 154.8 60L90.24 102.4A42.8 42.8 0 0 0 62.08 91.92C38.4 91.92 19.2 111.04 19.2 134.56S38.4 177.2 62.08 177.2C75.68 177.2 87.84 170.88 95.6 161.12L153.12 200.24A42.16 42.16 0 0 0 151.04 213.36z" />
    <glyph glyph-name="Share-Circle"
      unicode="&#xEA65;"
      horiz-adv-x="256" d="M87.36 214A40.32 40.32 0 1 0 168 214A40.32 40.32 0 0 0 87.36 214zM0 52.72A40.32 40.32 0 1 0 80.64 52.72A40.32 40.32 0 0 0 0 52.72zM215.04 12.4A40.32 40.32 0 1 0 215.04 93.04A40.32 40.32 0 0 0 215.04 12.4zM63.2 193.04A97.2 97.2 0 0 1 30.24 119.92A10.08 10.08 0 0 0 10.08 119.92A117.36 117.36 0 0 0 49.92 208.08A10.08 10.08 0 0 0 63.2 193.04zM205.44 208.08A117.36 117.36 0 0 0 245.28 119.92A10.08 10.08 0 0 0 225.12 119.92A97.2 97.2 0 0 1 192.16 193.04A10.08 10.08 0 1 0 205.44 208.08zM103.28 25.52C111.04 23.52 119.2 22.48 127.68 22.48S144.24 23.52 152.08 25.52A10.08 10.08 0 1 0 157.04 6A117.92 117.92 0 0 0 98.32 6A10.08 10.08 0 1 0 103.28 25.52z" />
    <glyph glyph-name="Sort-Horizontal"
      unicode="&#xEA66;"
      horiz-adv-x="256" d="M144.16 127.84A10.64 10.64 0 0 0 162.32 135.52L221.04 78.56A10.64 10.64 0 0 0 221.04 63.2L162.32 6.24A10.64 10.64 0 0 0 144.16 13.92V60.24H42.72A10.64 10.64 0 0 0 42.72 81.6H144.16V127.84zM112.16 241.76V195.44H213.6A10.64 10.64 0 0 0 213.6 174.08H112.16V127.84A10.64 10.64 0 0 0 94 120.16L35.28 177.12A10.64 10.64 0 0 0 35.28 192.48L94 249.44A10.64 10.64 0 0 0 112.16 241.76z" />
    <glyph glyph-name="TV"
      unicode="&#xEA67;"
      horiz-adv-x="256" d="M256 78.4C256 42.24 256 24.08 244.72 12.88C234.16 2.32 217.52 1.68 185.6 1.6V206.4C217.6 206.4 234.16 205.68 244.72 195.12C256 183.84 256 165.76 256 129.6V78.4zM217.6 142.4A12.8 12.8 0 1 1 217.6 116.8A12.8 12.8 0 0 1 217.6 142.4zM217.6 91.2A12.8 12.8 0 1 1 217.6 65.6A12.8 12.8 0 0 1 217.6 91.2zM173.68 238.56L146.16 206.4H166.4V1.6H76.8C40.64 1.6 22.48 1.6 11.28 12.88C0 24.08 0 42.24 0 78.4V129.6C0 165.76 0 183.92 11.28 195.12C22.48 206.4 40.64 206.4 76.8 206.4H109.84L82.32 238.56A9.6 9.6 0 1 0 96.88 251.04L128 214.72L159.12 251.04A9.6 9.6 0 1 0 173.68 238.56z" />
    <glyph glyph-name="Tablet"
      unicode="&#xEA68;"
      horiz-adv-x="256" d="M15.04 40.64C30 25.6 54.16 25.6 102.4 25.6H153.6C201.84 25.6 226.0000000000001 25.6 240.9600000000001 40.64C256.0000000000001 55.6 256.0000000000001 79.76 256.0000000000001 128C256.0000000000001 176.24 256.0000000000001 200.4 240.9600000000001 215.36C226.0000000000001 230.4 201.8400000000001 230.4 153.6000000000001 230.4H102.4000000000001C54.1600000000001 230.4 30.0000000000001 230.4 15.0400000000001 215.36C1e-13 200.4 1e-13 176.24 1e-13 128C1e-13 79.76 1e-13 55.6 15.0400000000001 40.64zM89.6 73.6A9.6 9.6 0 0 1 89.6 54.4H166.4A9.6 9.6 0 0 1 166.4 73.6H89.6z" />
    <glyph glyph-name="Three-Squares"
      unicode="&#xEA69;"
      horiz-adv-x="256" d="M128 204.8C128 228.96 128 240.96 135.52 248.48C143.04 256 155.04 256 179.2 256H204.8C228.96 256 240.96 256 248.48 248.48C256 240.96 256 228.96 256 204.8V179.2C256 155.04 256 143.04 248.48 135.52C240.96 128 228.96 128 204.8 128H179.2C155.04 128 143.04 128 135.52 135.52C128 143.04 128 155.04 128 179.2V204.8zM108.8 192V178.08C108.8 167.04 108.8 156.88 109.92 148.56C111.12 139.44 114 129.84 121.92 121.92C129.84 114 139.44 111.12 148.56 109.92C156.8 108.8 166.96 108.8 178.08 108.8H192C191.92 88.88 191.28 78.32 184.48 71.52C176.96 64 164.96 64 140.8 64H115.2C91.04 64 79.04 64 71.52 71.52A19.68 19.68 0 0 0 67.28 77.76C64 85.44 64 96.88 64 115.2V140.8C64 164.96 64 176.96 71.52 184.48C78.32 191.28 88.88 191.92 108.8 192zM44.8 128V114.08C44.8 103.04 44.8 92.88 45.92 84.56C47.12 75.44 50 65.84 57.92 57.92C65.84 50 75.44 47.12 84.56 45.92C92.8 44.8 102.96 44.8 114.08 44.8H128C127.92 24.88 127.28 14.32 120.48 7.52C112.96 0 100.96 0 76.8 0H51.2C27.04 0 15.04 0 7.52 7.52C0 15.04 0 27.04 0 51.2V76.8C0 100.96 0 112.96 7.52 120.48C14.32 127.28 24.88 127.92 44.8 128z" />
    <glyph glyph-name="Trash-Bin-2"
      unicode="&#xEA6A;"
      horiz-adv-x="256" d="M12.8 202.64C12.8 208.56 17.2 213.28 22.64 213.36H56.8C63.6 213.52 69.52 218.16 71.84 225.04L72.24 226.24L73.68 231.04C74.56 233.92 75.36 236.48 76.48 238.8C80.8 247.76 88.8 254 98.08 255.6C100.4 256 102.88 256 105.76 256H150.24C153.12 256 155.6 256 157.92 255.6C167.2 254 175.2 247.76 179.52 238.8C180.64 236.56 181.44 234 182.32 231.04L183.76 226.24L184.16 225.04C186.48 218.16 193.6 213.52 200.4 213.36H233.3600000000001C238.8000000000001 213.36 243.2000000000001 208.56 243.2000000000001 202.64C243.2000000000001 196.72 238.8000000000001 192 233.3600000000001 192H22.64C17.2 192 12.8 196.8 12.8 202.64zM126.16 0C91.52 0 74.16 0 62.88 11.04C51.6 22.08 50.48 40.24 48.16 76.48L44.88 128.72C43.6 148.4 42.96 158.24 48.64 164.48C54.32 170.72 63.84 170.72 82.96 170.64H179.44C198.56 170.64 208.08 170.64 213.76 164.48C219.44 158.24 218.8 148.4 217.52 128.72L214.24 76.48C211.92 40.24 210.8 22.08 199.52 11.04C188.24 0 170.96 0 136.24 0H126.16z" />
    <glyph glyph-name="Upload-Square"
      unicode="&#xEA6B;"
      horiz-adv-x="256" d="M0 128C0 188.32 0 218.48 18.72 237.28C37.44 256 67.68 256 128 256C188.32 256 218.48 256 237.28 237.28C256 218.56 256 188.32 256 128C256 67.68 256 37.52 237.28 18.72C218.56 0 188.32 0 128 0C67.68 0 37.52 0 18.72 18.72C0 37.44 0 67.68 0 128zM128 54.4A9.6 9.6 0 0 1 137.6 64V130.4L159.6 108.4A9.6 9.6 0 1 1 173.2 122L134.8 160.4A9.6 9.6 0 0 1 121.2 160.4L82.8 122A9.6 9.6 0 1 1 96.4 108.4L118.4 130.4V64C118.4 58.72 122.72 54.4 128 54.4zM76.8 182.4A9.6 9.6 0 0 0 76.8 201.6H179.2A9.6 9.6 0 0 0 179.2 182.4H76.8z" />
    <glyph glyph-name="Verified-Check"
      unicode="&#xEA6C;"
      horiz-adv-x="256" d="M97.2 240.64A71.36 71.36 0 0 0 90.88 235.52C87.04 232.96 82.8 231.2 78.24 230.32C76.32 229.92 74.24 229.76 70.16 229.44C59.92 228.64 54.8 228.24 50.48 226.72A34.72 34.72 0 0 1 29.28 205.52C27.76 201.28 27.36 196.08 26.56 185.84A73.04 73.04 0 0 0 25.68 177.76C24.8 173.28 23.04 168.96 20.48 165.12C19.36 163.44 18 161.92 15.36 158.8C8.72 150.96 5.36 147.04 3.36 142.96C-1.12 133.52 -1.12 122.48 3.36 113.04C5.28 108.96 8.64 105.04 15.36 97.2C18 94.08 19.36 92.56 20.48 90.88C23.04 87.04 24.8 82.8 25.68 78.24C26.08 76.24 26.24 74.24 26.56 70.16C27.36 59.92 27.76 54.8 29.28 50.48A34.72 34.72 0 0 1 50.48 29.28C54.72 27.76 59.92 27.36 70.16 26.56C74.24 26.24 76.32 26.08 78.24 25.68C82.72 24.8 87.04 23.04 90.88 20.48C92.56 19.36 94.08 18 97.2 15.36C105.04 8.72 108.96 5.36 113.04 3.36C122.48 -1.12 133.52 -1.12 142.96 3.36C147.04 5.28 150.96 8.64 158.8 15.36C161.92 18 163.44 19.36 165.12 20.48C168.96 23.04 173.2 24.8 177.76 25.68C179.76 26.08 181.76 26.24 185.84 26.56C196.08 27.36 201.2 27.76 205.52 29.28A34.72 34.72 0 0 1 226.72 50.48C228.24 54.72 228.64 59.92 229.44 70.16C229.76 74.24 229.92 76.24 230.32 78.24C231.2 82.72 232.96 87.04 235.52 90.88C236.64 92.56 238 94.08 240.64 97.2C247.28 105.04 250.64 108.96 252.64 113.04C257.12 122.48 257.12 133.52 252.64 142.96C250.72 147.04 247.36 150.96 240.64 158.8A71.36 71.36 0 0 0 235.52 165.12A35.04 35.04 0 0 0 230.32 177.76A73.04 73.04 0 0 0 229.44 185.84C228.64 196.08 228.24 201.2 226.72 205.52A34.72 34.72 0 0 1 205.52 226.72C201.28 228.24 196.08 228.64 185.84 229.44A73.44 73.44 0 0 0 177.76 230.32A34.8 34.8 0 0 0 165.12 235.52A71.36 71.36 0 0 0 158.8 240.64C150.96 247.28 147.04 250.64 142.96 252.64A34.8 34.8 0 0 1 113.04 252.64C108.96 250.72 105.04 247.36 97.2 240.64zM184 155.36A10.4 10.4 0 1 1 169.28 170.08L107.2 108L86.72 128.4A10.4 10.4 0 1 1 72 113.68L99.84 85.92A10.4 10.4 0 0 1 114.56 85.92L184 155.36z" />
    </font>
</defs>
</svg>
